  0
SECTION
  2
HEADER
  9
$ACADVER
  1
AC1014
  9
$ACADMAINTVER
 70
     0
  9
$DWGCODEPAGE
  3
ANSI_932
  9
$INSBASE
 10
0.0
 20
0.0
 30
0.0
  9
$EXTMIN
 10
10.0
 20
10.0
 30
0.0
  9
$EXTMAX
 10
410.0
 20
287.0
 30
0.0
  9
$LIMMIN
 10
0.0
 20
0.0
  9
$LIMMAX
 10
420.0
 20
297.0
  9
$ORTHOMODE
 70
     0
  9
$REGENMODE
 70
     1
  9
$FILLMODE
 70
     1
  9
$QTEXTMODE
 70
     0
  9
$MIRRTEXT
 70
     1
  9
$DRAGMODE
 70
     2
  9
$LTSCALE
 40
1.0
  9
$OSMODE
 70
     0
  9
$ATTMODE
 70
     1
  9
$TEXTSIZE
 40
0.2
  9
$TRACEWID
 40
0.05
  9
$TEXTSTYLE
  7
STANDARD
  9
$CLAYER
  8
LAY-1
  9
$CELTYPE
  6
CONTINUOUS
  9
$CECOLOR
 62
   256
  9
$CELTSCALE
 40
1.0
  9
$DELOBJ
 70
     1
  9
$DISPSILH
 70
     0
  9
$DIMSCALE
 40
1.0
  9
$DIMASZ
 40
0.18
  9
$DIMEXO
 40
0.0625
  9
$DIMDLI
 40
0.38
  9
$DIMRND
 40
0.0
  9
$DIMDLE
 40
0.0
  9
$DIMEXE
 40
0.18
  9
$DIMTP
 40
0.0
  9
$DIMTM
 40
0.0
  9
$DIMTXT
 40
0.18
  9
$DIMCEN
 40
0.09
  9
$DIMTSZ
 40
0.0
  9
$DIMTOL
 70
     0
  9
$DIMLIM
 70
     0
  9
$DIMTIH
 70
     1
  9
$DIMTOH
 70
     1
  9
$DIMSE1
 70
     0
  9
$DIMSE2
 70
     0
  9
$DIMTAD
 70
     0
  9
$DIMZIN
 70
     0
  9
$DIMBLK
  1

  9
$DIMASO
 70
     1
  9
$DIMSHO
 70
     1
  9
$DIMPOST
  1

  9
$DIMAPOST
  1

  9
$DIMALT
 70
     0
  9
$DIMALTD
 70
     2
  9
$DIMALTF
 40
25.4
  9
$DIMLFAC
 40
1.0
  9
$DIMTOFL
 70
     0
  9
$DIMTVP
 40
0.0
  9
$DIMTIX
 70
     0
  9
$DIMSOXD
 70
     0
  9
$DIMSAH
 70
     0
  9
$DIMBLK1
  1

  9
$DIMBLK2
  1

  9
$DIMSTYLE
  2
STANDARD
  9
$DIMCLRD
 70
     0
  9
$DIMCLRE
 70
     0
  9
$DIMCLRT
 70
     0
  9
$DIMTFAC
 40
1.0
  9
$DIMGAP
 40
0.09
  9
$DIMJUST
 70
     0
  9
$DIMSD1
 70
     0
  9
$DIMSD2
 70
     0
  9
$DIMTOLJ
 70
     1
  9
$DIMTZIN
 70
     0
  9
$DIMALTZ
 70
     0
  9
$DIMALTTZ
 70
     0
  9
$DIMFIT
 70
     3
  9
$DIMUPT
 70
     0
  9
$DIMUNIT
 70
     2
  9
$DIMDEC
 70
     4
  9
$DIMTDEC
 70
     4
  9
$DIMALTU
 70
     2
  9
$DIMALTTD
 70
     2
  9
$DIMTXSTY
  7
STANDARD
  9
$DIMAUNIT
 70
     0
  9
$LUNITS
 70
     2
  9
$LUPREC
 70
     4
  9
$SKETCHINC
 40
0.1
  9
$FILLETRAD
 40
0.0
  9
$AUNITS
 70
     0
  9
$AUPREC
 70
     0
  9
$MENU
  1
acad
  9
$ELEVATION
 40
0.0
  9
$PELEVATION
 40
0.0
  9
$THICKNESS
 40
0.0
  9
$LIMCHECK
 70
     0
  9
$BLIPMODE
 70
     1
  9
$CHAMFERA
 40
0.0
  9
$CHAMFERB
 40
0.0
  9
$CHAMFERC
 40
0.0
  9
$CHAMFERD
 40
0.0
  9
$SKPOLY
 70
     0
  9
$TDCREATE
 40
2456136.144865185
  9
$TDUPDATE
 40
2456136.144865185
  9
$TDINDWG
 40
0.0000000000
  9
$TDUSRTIMER
 40
0.0000000000
  9
$USRTIMER
 70
     1
  9
$ANGBASE
 50
0.0
  9
$ANGDIR
 70
     0
  9
$PDMODE
 70
     0
  9
$PDSIZE
 40
0.0
  9
$PLINEWID
 40
0.0
  9
$COORDS
 70
     1
  9
$SPLFRAME
 70
     0
  9
$SPLINETYPE
 70
     6
  9
$SPLINESEGS
 70
     8
  9
$ATTDIA
 70
     0
  9
$ATTREQ
 70
     1
  9
$HANDLING
 70
     1
  9
$HANDSEED
  5
747
  9
$SURFTAB1
 70
     6
  9
$SURFTAB2
 70
     6
  9
$SURFTYPE
 70
     6
  9
$SURFU
 70
     6
  9
$SURFV
 70
     6
  9
$UCSNAME
  2

  9
$UCSORG
 10
0.0
 20
0.0
 30
0.0
  9
$UCSXDIR
 10
1.0
 20
0.0
 30
0.0
  9
$UCSYDIR
 10
0.0
 20
1.0
 30
0.0
  9
$PUCSNAME
  2

  9
$PUCSORG
 10
0.0
 20
0.0
 30
0.0
  9
$PUCSXDIR
 10
1.0
 20
0.0
 30
0.0
  9
$PUCSYDIR
 10
0.0
 20
1.0
 30
0.0
  9
$USERI1
 70
     0
  9
$USERI2
 70
     0
  9
$USERI3
 70
     0
  9
$USERI4
 70
     0
  9
$USERI5
 70
     0
  9
$USERR1
 40
0.0
  9
$USERR2
 40
0.0
  9
$USERR3
 40
0.0
  9
$USERR4
 40
0.0
  9
$USERR5
 40
0.0
  9
$WORLDVIEW
 70
     1
  9
$SHADEDGE
 70
     3
  9
$SHADEDIF
 70
    70
  9
$TILEMODE
 70
     1
  9
$MAXACTVP
 70
    16
  9
$PINSBASE
 10
0.0
 20
0.0
 30
0.0
  9
$PLIMCHECK
 70
     0
  9
$PEXTMIN
 10
1.000000E+20
 20
1.000000E+20
 30
1.000000E+20
  9
$PEXTMAX
 10
-1.000000E+20
 20
-1.000000E+20
 30
-1.000000E+20
  9
$PLIMMIN
 10
0.0
 20
0.0
  9
$PLIMMAX
 10
12.0
 20
9.0
  9
$UNITMODE
 70
     0
  9
$VISRETAIN
 70
     0
  9
$PLINEGEN
 70
     1
  9
$PSLTSCALE
 70
     0
  9
$TREEDEPTH
 70
  3020
  9
$PICKSTYLE
 70
     1
  9
$CMLSTYLE
  2
Standard
  9
$CMLJUST
 70
     0
  9
$CMLSCALE
 40
1.0
  9
$PROXYGRAPHICS
 70
     0
  9
$MEASUREMENT
 70
     0
  0
ENDSEC
  0
SECTION
  2
CLASSES
  0
CLASS
  1
LWPOLYLINE
  2
AcDbPolyline
  3
"AutoCAD"
 90
        0
280
     0
281
     1
  0
CLASS
  1
IMAGE
  2
AcDbRasterImage
  3
ISM
 90
      127
280
     0
281
     1
  0
CLASS
  1
OLE2FRAME
  2
AcDbOle2Frame
  3
""
 90
        0
280
     0
281
     1
  0
CLASS
  1
HATCH
  2
AcDbHatch
  3
"ACAD_SEDONA"
 90
        0
280
     0
281
     1
  0
CLASS
  1
DICTIONARYVAR
  2
AcDbDictionaryVar
  3
"AutoCAD"
 90
        0
280
     0
281
     0
  0
CLASS
  1
RASTERVARIABLES
  2
AcDbRasterVariables
  3
ISM
 90
        0
280
     0
281
     0
  0
CLASS
  1
IMAGEDEF
  2
AcDbRasterImageDef
  3
ISM
 90
        0
280
     0
281
     0
  0
CLASS
  1
IMAGEDEF_REACTOR
  2
AcDbRasterImageDefReactor
  3
ISM
 90
        1
280
     0
281
     0
  0
CLASS
  1
IDBUFFER
  2
AcDbIdBuffer
  3
"Acad"
 90
        0
280
     0
281
     0
  0
CLASS
  1
SPATIAL_FILTER
  2
AcDbSpatialFilter
  3
"Acad"
 90
        0
280
     0
281
     0
  0
CLASS
  1
XRECORD
  2
AcDbXrecord
  3
"<Built In>"
 90
        0
280
     0
281
     0
  0
CLASS
  1
SORTENTSTABLE
  2
AcDbSortentsTable
  3
"AutoCAD"
 90
        0
280
     0
281
     0
  0
CLASS
  1
LAYER_INDEX
  2
AcDbLayerIndex
  3
"Acad"
 90
        0
280
     0
281
     0
  0
CLASS
  1
SPATIAL_INDEX
  2
AcDbSpatialIndex
  3
"Acad"
 90
        0
280
     0
281
     0
  0
CLASS
  1
OBJECT_PTR
  2
CAseDLPNTableRecord
  3
"ASE-LPNTableRecord"
 90
        1
280
     0
281
     0
  0
CLASS
  1
LAYOUT
  2
AcDbLayout
  3
"AutoCAD 2000"
 90
        0
280
     0
281
     0
  0
CLASS
  1
PLOTSETTINGS
  2
AcDbPlotSettings
  3
"AutoCAD 2000"
 90
        0
280
     0
281
     0
  0
CLASS
  1
ACDBDICTIONARYWDFLT
  2
AcDbDictionaryWithDefault
  3
"AutoCAD 2000"
 90
        0
280
     0
281
     0
  0
CLASS
  1
ACDBPLACEHOLDER
  2
AcDbPlaceHolder
  3
"AutoCAD 2000"
 90
        0
280
     0
281
     0
  0
CLASS
  1
VBA_PROJECT
  2
AcDbVbaProject
  3
"acadvba"
 90
        0
280
     0
281
     0
  0
CLASS
  1
WIPEOUT
  2
AcDbWipeout
  3
WipeOut|AutoCAD Express Tool|expresstools@autodesk.com
 90
      127
280
     0
281
     1
  0
CLASS
  1
WIPEOUTVARIABLES
  2
AcDbWipeoutVariables
  3
WipeOut|AutoCAD Express Tool|expresstools@autodesk.com
 90
        0
280
     0
281
     0
  0
CLASS
  1
RTEXT
  2
RText
  3
RText|AutoCAD Express Tool|expresstools@autodesk.com
 90
        0
280
     0
281
     1
  0
CLASS
  1
ARCALIGNEDTEXT
  2
AcDbArcAlignedText
  3
ATEXT|AutoCAD Express Tool|expresstools@autodesk.com
 90
        0
280
     0
281
     1
  0
ENDSEC
  0
SECTION
  2
TABLES
  0
TABLE
  2
VPORT
  5
7
100
AcDbSymbolTable
 70
     1
  0
VPORT
  5
15
100
AcDbSymbolTableRecord
100
AcDbViewportTableRecord
  2
*ACTIVE
 70
     0
 10
0.0
 20
0.0
 11
1.0
 21
1.0
 12
967.5
 22
717.5
 13
0.0
 23
0.0
 14
1.0
 24
1.0
 15
0.0
 25
0.0
 16
0.0
 26
0.0
 36
1.0
 17
0.0
 27
0.0
 37
0.0
 40
1385.0
 41
1.722533
 42
50.0
 43
0.0
 44
0.0
 50
0.0
 51
0.0
 71
     0
 72
   100
 73
     1
 74
     1
 75
     0
 76
     0
 77
     0
 78
     0
  0
ENDTAB
  0
TABLE
  2
LTYPE
  5
4
100
AcDbSymbolTable
 70
     9
  0
LTYPE
  5
11
100
AcDbSymbolTableRecord
100
AcDbLinetypeTableRecord
  2
BYBLOCK
 70
    64
  3

 72
    65
 73
     0
 40
0.0
  0
LTYPE
  5
12
100
AcDbSymbolTableRecord
100
AcDbLinetypeTableRecord
  2
BYLAYER
 70
    64
  3

 72
    65
 73
     0
 40
0.0
  0
LTYPE
  5
13
100
AcDbSymbolTableRecord
100
AcDbLinetypeTableRecord
  2
CONTINUOUS
 70
    64
  3
実線
 72
    65
 73
     0
 40
0.0
  0
LTYPE
  5
1D
100
AcDbSymbolTableRecord
100
AcDbLinetypeTableRecord
  2
DASHED
 70
    64
  3
Dashed __ __ __ __ __ __ __ __ __ __ __ __ __ _
 72
    65
 73
     2
 40
19.05
 49
12.7
 74
     0
 49
-6.35
 74
     0
  0
LTYPE
  5
1E
100
AcDbSymbolTableRecord
100
AcDbLinetypeTableRecord
  2
HIDDEN
 70
    64
  3
Hidden __ __ __ __ __ __ __ __ __ __ __ __ __ __
 72
    65
 73
     2
 40
9.525
 49
6.35
 74
     0
 49
-3.175
 74
     0
  0
LTYPE
  5
1F
100
AcDbSymbolTableRecord
100
AcDbLinetypeTableRecord
  2
CENTER
 70
    64
  3
Center ____ _ ____ _ ____ _ ____ _ ____ _ ____
 72
    65
 73
     4
 40
50.8
 49
31.75
 74
     0
 49
-6.35
 74
     0
 49
6.35
 74
     0
 49
-6.35
 74
     0
  0
LTYPE
  5
20
100
AcDbSymbolTableRecord
100
AcDbLinetypeTableRecord
  2
DIVIDE
 70
    64
  3
Divide ____ . . ____ . . ____ . . ____ . . ____
 72
    65
 73
     6
 40
31.75
 49
12.7
 74
     0
 49
-6.35
 74
     0
 49
0.0
 74
     0
 49
-6.35
 74
     0
 49
0.0
 74
     0
 49
-6.35
 74
     0
  0
LTYPE
  5
21
100
AcDbSymbolTableRecord
100
AcDbLinetypeTableRecord
  2
ACAD_ISO06W100
 70
    64
  3
ISO long-dash triple-dot ____ ... ____ ... ____
 72
    65
 73
     8
 40
36.0
 49
24.0
 74
     0
 49
-3.0
 74
     0
 49
0.0
 74
     0
 49
-3.0
 74
     0
 49
0.0
 74
     0
 49
-3.0
 74
     0
 49
0.0
 74
     0
 49
-3.0
 74
     0
  0
LTYPE
  5
22
100
AcDbSymbolTableRecord
100
AcDbLinetypeTableRecord
  2
ACAD_ISO15W100
 70
    64
  3
ISO double-dash triple-dot __ __ . . . __ __ . .
 72
    65
 73
    10
 40
39.0
 49
12.0
 74
     0
 49
-3.0
 74
     0
 49
12.0
 74
     0
 49
-3.0
 74
     0
 49
0.0
 74
     0
 49
-3.0
 74
     0
 49
0.0
 74
     0
 49
-3.0
 74
     0
 49
0.0
 74
     0
 49
-3.0
 74
     0
  0
ENDTAB
  0
TABLE
  2
LAYER
  5
2
100
AcDbSymbolTable
 70
     2
  0
LAYER
  5
14
100
AcDbSymbolTableRecord
100
AcDbLayerTableRecord
  2
0
 70
     0
 62
     7
  6
CONTINUOUS
  0
LAYER
  5
25
100
AcDbSymbolTableRecord
100
AcDbLayerTableRecord
  2
LAY-1
 70
    64
 62
     7
  6
CONTINUOUS
  0
ENDTAB
  0
TABLE
  2
STYLE
  5
3
100
AcDbSymbolTable
 70
     9
  0
STYLE
  5
17
100
AcDbSymbolTableRecord
100
AcDbTextStyleTableRecord
  2
STANDARD
 70
     0
 40
0.0
 41
1.0
 50
0.0
 71
     0
 42
0.0
  3
monotxt
  4
extfont
  0
STYLE
  5
23
100
AcDbSymbolTableRecord
100
AcDbTextStyleTableRecord
  2
EXCADSTD
 70
    64
 40
0.0
 41
1.0
 50
0.0
 71
     0
 42
0.2
  3
monotxt
  4
extfont
  0
STYLE
  5
24
100
AcDbSymbolTableRecord
100
AcDbTextStyleTableRecord
  2
EXCADVERT
 70
    68
 40
0.0
 41
1.0
 50
0.0
 71
     0
 42
0.286885
  3
monotxt
  4
extfont
  0
STYLE
  5
8D
100
AcDbSymbolTableRecord
100
AcDbTextStyleTableRecord
  2
EXCADTTF1
 70
    64
 40
0.0
 41
1.0
 50
0.0
 71
     0
 42
0.2
  3

  4

1001
ACAD
1000
MS Gothic
1071
        0
  0
STYLE
  5
4DE
100
AcDbSymbolTableRecord
100
AcDbTextStyleTableRecord
  2
EXCADTTF2
 70
    64
 40
0.0
 41
1.0
 50
0.0
 71
     0
 42
0.2
  3
@MS Gothic.ttf
  4

1001
ACAD
1000
@MS Gothic
1071
    32817
  0
STYLE
  5
508
100
AcDbSymbolTableRecord
100
AcDbTextStyleTableRecord
  2
EXCADTTF3
 70
    64
 40
0.0
 41
1.0
 50
0.0
 71
     0
 42
0.2
  3
MS Gothic.ttf
  4

1001
ACAD
1000
MS Gothic
1071
    32817
  0
STYLE
  5
513
100
AcDbSymbolTableRecord
100
AcDbTextStyleTableRecord
  2
EXCADTTF4
 70
    64
 40
0.0
 41
1.0
 50
0.0
 71
     0
 42
0.2
  3
MS Mincho.ttf
  4

1001
ACAD
1000
MS Mincho
1071
    32785
  0
STYLE
  5
568
100
AcDbSymbolTableRecord
100
AcDbTextStyleTableRecord
  2
EXCADDIM1
 70
    64
 40
0.0
 41
0.76
 50
0.0
 71
     0
 42
0.2
  3
monotxt
  4
extfont
  0
STYLE
  5
726
100
AcDbSymbolTableRecord
100
AcDbTextStyleTableRecord
  2
EXCADTTF5
 70
    64
 40
0.0
 41
1.0
 50
0.0
 71
     0
 42
0.2
  3

  4

1001
ACAD
1000
@MS Gothic
1071
        0
  0
ENDTAB
  0
TABLE
  2
VIEW
  5
5
100
AcDbSymbolTable
 70
     0
  0
ENDTAB
  0
TABLE
  2
UCS
  5
6
100
AcDbSymbolTable
 70
     0
  0
ENDTAB
  0
TABLE
  2
APPID
  5
8
100
AcDbSymbolTable
 70
     1
  0
APPID
  5
16
100
AcDbSymbolTableRecord
100
AcDbRegAppTableRecord
  2
ACAD
 70
     0
  0
ENDTAB
  0
TABLE
  2
DIMSTYLE
  5
9
100
AcDbSymbolTable
 70
     1
  0
DIMSTYLE
105
18
100
AcDbSymbolTableRecord
100
AcDbDimStyleTableRecord
  2
STANDARD
 70
     0
  3

  4

  5

  6

  7

 40
1.0
 41
0.18
 42
0.0625
 43
0.38
 44
0.18
 45
0.0
 46
0.0
 47
0.0
 48
0.0
 71
     0
 72
     0
 73
     1
 74
     1
 75
     0
 76
     0
 77
     0
 78
     0
140
0.18
141
0.09
142
0.0
143
25.4
144
1.0
145
0.0
146
1.0
147
0.09
170
     0
171
     2
172
     1
173
     0
174
     0
175
     0
176
     0
177
     0
178
     0
270
     2
271
     4
272
     4
273
     2
274
     2
275
     0
280
     0
281
     0
282
     0
283
     1
284
     0
285
     0
286
     0
287
     3
288
     0
340
17
  0
ENDTAB
  0
TABLE
  2
BLOCK_RECORD
  5
1
100
AcDbSymbolTable
 70
    32
  0
BLOCK_RECORD
  5
A
100
AcDbSymbolTableRecord
100
AcDbBlockTableRecord
  2
*MODEL_SPACE
  0
BLOCK_RECORD
  5
B
100
AcDbSymbolTableRecord
100
AcDbBlockTableRecord
  2
*PAPER_SPACE
  0
BLOCK_RECORD
  5
26
100
AcDbSymbolTableRecord
100
AcDbBlockTableRecord
  2
_EX_NORM
  0
BLOCK_RECORD
  5
27
100
AcDbSymbolTableRecord
100
AcDbBlockTableRecord
  2
_EX_BNORM
  0
BLOCK_RECORD
  5
28
100
AcDbSymbolTableRecord
100
AcDbBlockTableRecord
  2
_EX_BCIR
  0
BLOCK_RECORD
  5
29
100
AcDbSymbolTableRecord
100
AcDbBlockTableRecord
  2
_EX_RCIVIL
  0
BLOCK_RECORD
  5
2A
100
AcDbSymbolTableRecord
100
AcDbBlockTableRecord
  2
_EX_SLANT
  0
BLOCK_RECORD
  5
2B
100
AcDbSymbolTableRecord
100
AcDbBlockTableRecord
  2
_EX_NONE
  0
BLOCK_RECORD
  5
2C
100
AcDbSymbolTableRecord
100
AcDbBlockTableRecord
  2
_EX_CIVIL
  0
BLOCK_RECORD
  5
2D
100
AcDbSymbolTableRecord
100
AcDbBlockTableRecord
  2
_EX_WCIR
  0
BLOCK_RECORD
  5
2E
100
AcDbSymbolTableRecord
100
AcDbBlockTableRecord
  2
_EX_WCIR2
  0
BLOCK_RECORD
  5
2F
100
AcDbSymbolTableRecord
100
AcDbBlockTableRecord
  2
_EX_WNORM
  0
BLOCK_RECORD
  5
30
100
AcDbSymbolTableRecord
100
AcDbBlockTableRecord
  2
_EX_NNORM
  0
BLOCK_RECORD
  5
31
100
AcDbSymbolTableRecord
100
AcDbBlockTableRecord
  2
_EX_BBOX
  0
BLOCK_RECORD
  5
32
100
AcDbSymbolTableRecord
100
AcDbBlockTableRecord
  2
_EX_WBOX
  0
BLOCK_RECORD
  5
33
100
AcDbSymbolTableRecord
100
AcDbBlockTableRecord
  2
_EX_INTEGRAL
  0
BLOCK_RECORD
  5
55D
100
AcDbSymbolTableRecord
100
AcDbBlockTableRecord
  2
*D14
  0
BLOCK_RECORD
  5
56A
100
AcDbSymbolTableRecord
100
AcDbBlockTableRecord
  2
*D15
  0
BLOCK_RECORD
  5
57A
100
AcDbSymbolTableRecord
100
AcDbBlockTableRecord
  2
*D16
  0
BLOCK_RECORD
  5
584
100
AcDbSymbolTableRecord
100
AcDbBlockTableRecord
  2
*D17
  0
BLOCK_RECORD
  5
58D
100
AcDbSymbolTableRecord
100
AcDbBlockTableRecord
  2
*D18
  0
BLOCK_RECORD
  5
599
100
AcDbSymbolTableRecord
100
AcDbBlockTableRecord
  2
*D19
  0
BLOCK_RECORD
  5
5A5
100
AcDbSymbolTableRecord
100
AcDbBlockTableRecord
  2
*D20
  0
BLOCK_RECORD
  5
5B1
100
AcDbSymbolTableRecord
100
AcDbBlockTableRecord
  2
*D21
  0
BLOCK_RECORD
  5
5D2
100
AcDbSymbolTableRecord
100
AcDbBlockTableRecord
  2
*D22
  0
BLOCK_RECORD
  5
5DD
100
AcDbSymbolTableRecord
100
AcDbBlockTableRecord
  2
*D23
  0
BLOCK_RECORD
  5
5E5
100
AcDbSymbolTableRecord
100
AcDbBlockTableRecord
  2
*D24
  0
BLOCK_RECORD
  5
5F0
100
AcDbSymbolTableRecord
100
AcDbBlockTableRecord
  2
*D25
  0
BLOCK_RECORD
  5
5F8
100
AcDbSymbolTableRecord
100
AcDbBlockTableRecord
  2
*D26
  0
BLOCK_RECORD
  5
6D3
100
AcDbSymbolTableRecord
100
AcDbBlockTableRecord
  2
*D27
  0
BLOCK_RECORD
  5
6DF
100
AcDbSymbolTableRecord
100
AcDbBlockTableRecord
  2
*D28
  0
BLOCK_RECORD
  5
6E9
100
AcDbSymbolTableRecord
100
AcDbBlockTableRecord
  2
*D29
  0
BLOCK_RECORD
  5
6F9
100
AcDbSymbolTableRecord
100
AcDbBlockTableRecord
  2
*D30
  0
BLOCK_RECORD
  5
70B
100
AcDbSymbolTableRecord
100
AcDbBlockTableRecord
  2
*D31
  0
ENDTAB
  0
ENDSEC
  0
SECTION
  2
BLOCKS
  0
BLOCK
  5
D
100
AcDbEntity
  8
0
100
AcDbBlockBegin
  2
*MODEL_SPACE
 70
     0
 10
0.0
 20
0.0
 30
0.0
  3
*MODEL_SPACE
  1

  0
ENDBLK
  5
E
100
AcDbEntity
  8
0
100
AcDbBlockEnd
  0
BLOCK
  5
F
100
AcDbEntity
 67
     1
  8
0
100
AcDbBlockBegin
  2
*PAPER_SPACE
 70
     0
 10
0.0
 20
0.0
 30
0.0
  3
*PAPER_SPACE
  1

  0
ENDBLK
  5
10
100
AcDbEntity
 67
     1
  8
0
100
AcDbBlockEnd
  0
BLOCK
  5
34
100
AcDbEntity
  8
0
100
AcDbBlockBegin
  2
_EX_NORM
 70
     0
 10
0.0
 20
0.0
 30
0.0
  3
_EX_NORM
  1

  0
LINE
  5
35
100
AcDbEntity
  8
0
  6
CONTINUOUS
 62
     0
100
AcDbLine
 10
0.0
 20
0.0
 30
0.0
 11
-1.0
 21
0.0
 31
0.0
  0
LINE
  5
36
100
AcDbEntity
  8
0
  6
CONTINUOUS
 62
     0
100
AcDbLine
 10
0.0
 20
0.0
 30
0.0
 11
-1.0
 21
0.166667
 31
0.0
  0
LINE
  5
37
100
AcDbEntity
  8
0
  6
CONTINUOUS
 62
     0
100
AcDbLine
 10
0.0
 20
0.0
 30
0.0
 11
-1.0
 21
-0.166667
 31
0.0
  0
ENDBLK
  5
38
100
AcDbEntity
  8
0
100
AcDbBlockEnd
  0
BLOCK
  5
39
100
AcDbEntity
  8
0
100
AcDbBlockBegin
  2
_EX_BNORM
 70
     0
 10
0.0
 20
0.0
 30
0.0
  3
_EX_BNORM
  1

  0
LINE
  5
3A
100
AcDbEntity
  8
0
  6
CONTINUOUS
 62
     0
100
AcDbLine
 10
0.0
 20
0.0
 30
0.0
 11
-1.0
 21
0.0
 31
0.0
  0
LINE
  5
3B
100
AcDbEntity
  8
0
  6
CONTINUOUS
 62
     0
100
AcDbLine
 10
0.0
 20
0.0
 30
0.0
 11
-1.0
 21
0.166667
 31
0.0
  0
LINE
  5
3C
100
AcDbEntity
  8
0
  6
CONTINUOUS
 62
     0
100
AcDbLine
 10
0.0
 20
0.0
 30
0.0
 11
-1.0
 21
-0.166667
 31
0.0
  0
LINE
  5
3D
100
AcDbEntity
  8
0
  6
CONTINUOUS
 62
     0
100
AcDbLine
 10
0.0
 20
0.0
 30
0.0
 11
-1.0
 21
0.083333
 31
0.0
  0
LINE
  5
3E
100
AcDbEntity
  8
0
  6
CONTINUOUS
 62
     0
100
AcDbLine
 10
0.0
 20
0.0
 30
0.0
 11
-1.0
 21
-0.083333
 31
0.0
  0
LINE
  5
3F
100
AcDbEntity
  8
0
  6
CONTINUOUS
 62
     0
100
AcDbLine
 10
-1.0
 20
0.166667
 30
0.0
 11
-1.0
 21
-0.166667
 31
0.0
  0
ENDBLK
  5
40
100
AcDbEntity
  8
0
100
AcDbBlockEnd
  0
BLOCK
  5
41
100
AcDbEntity
  8
0
100
AcDbBlockBegin
  2
_EX_BCIR
 70
     0
 10
0.0
 20
0.0
 30
0.0
  3
_EX_BCIR
  1

  0
LINE
  5
42
100
AcDbEntity
  8
0
  6
CONTINUOUS
 62
     0
100
AcDbLine
 10
0.0
 20
0.0
 30
0.0
 11
-1.0
 21
0.0
 31
0.0
  0
CIRCLE
  5
43
100
AcDbEntity
  8
0
  6
CONTINUOUS
 62
     0
100
AcDbCircle
 10
0.0
 20
0.0
 30
0.0
 40
0.5
  0
CIRCLE
  5
44
100
AcDbEntity
  8
0
  6
CONTINUOUS
 62
     0
100
AcDbCircle
 10
0.0
 20
0.0
 30
0.0
 40
0.25
  0
ENDBLK
  5
45
100
AcDbEntity
  8
0
100
AcDbBlockEnd
  0
BLOCK
  5
46
100
AcDbEntity
  8
0
100
AcDbBlockBegin
  2
_EX_RCIVIL
 70
     0
 10
0.0
 20
0.0
 30
0.0
  3
_EX_RCIVIL
  1

  0
LINE
  5
47
100
AcDbEntity
  8
0
  6
CONTINUOUS
 62
     0
100
AcDbLine
 10
0.0
 20
0.0
 30
0.0
 11
-1.0
 21
0.0
 31
0.0
  0
LINE
  5
48
100
AcDbEntity
  8
0
  6
CONTINUOUS
 62
     0
100
AcDbLine
 10
-1.0
 20
-0.25
 30
0.0
 11
0.0
 21
-0.25
 31
0.0
  0
LINE
  5
49
100
AcDbEntity
  8
0
  6
CONTINUOUS
 62
     0
100
AcDbLine
 10
-1.0
 20
-0.125
 30
0.0
 11
0.0
 21
-0.125
 31
0.0
  0
ENDBLK
  5
4A
100
AcDbEntity
  8
0
100
AcDbBlockEnd
  0
BLOCK
  5
4B
100
AcDbEntity
  8
0
100
AcDbBlockBegin
  2
_EX_SLANT
 70
     0
 10
0.0
 20
0.0
 30
0.0
  3
_EX_SLANT
  1

  0
LINE
  5
4C
100
AcDbEntity
  8
0
  6
CONTINUOUS
 62
     0
100
AcDbLine
 10
0.0
 20
0.0
 30
0.0
 11
-1.0
 21
0.0
 31
0.0
  0
LINE
  5
4D
100
AcDbEntity
  8
0
  6
CONTINUOUS
 62
     0
100
AcDbLine
 10
0.707107
 20
0.707107
 30
0.0
 11
-0.707107
 21
-0.707107
 31
0.0
  0
ENDBLK
  5
4E
100
AcDbEntity
  8
0
100
AcDbBlockEnd
  0
BLOCK
  5
4F
100
AcDbEntity
  8
0
100
AcDbBlockBegin
  2
_EX_NONE
 70
     0
 10
0.0
 20
0.0
 30
0.0
  3
_EX_NONE
  1

  0
LINE
  5
50
100
AcDbEntity
  8
0
  6
CONTINUOUS
 62
     0
100
AcDbLine
 10
0.0
 20
0.0
 30
0.0
 11
-1.0
 21
0.0
 31
0.0
  0
ENDBLK
  5
51
100
AcDbEntity
  8
0
100
AcDbBlockEnd
  0
BLOCK
  5
52
100
AcDbEntity
  8
0
100
AcDbBlockBegin
  2
_EX_CIVIL
 70
     0
 10
0.0
 20
0.0
 30
0.0
  3
_EX_CIVIL
  1

  0
LINE
  5
53
100
AcDbEntity
  8
0
  6
CONTINUOUS
 62
     0
100
AcDbLine
 10
0.0
 20
0.0
 30
0.0
 11
-1.0
 21
0.0
 31
0.0
  0
LINE
  5
54
100
AcDbEntity
  8
0
  6
CONTINUOUS
 62
     0
100
AcDbLine
 10
-1.0
 20
0.25
 30
0.0
 11
0.0
 21
0.25
 31
0.0
  0
LINE
  5
55
100
AcDbEntity
  8
0
  6
CONTINUOUS
 62
     0
100
AcDbLine
 10
-1.0
 20
0.125
 30
0.0
 11
0.0
 21
0.125
 31
0.0
  0
ENDBLK
  5
56
100
AcDbEntity
  8
0
100
AcDbBlockEnd
  0
BLOCK
  5
57
100
AcDbEntity
  8
0
100
AcDbBlockBegin
  2
_EX_WCIR
 70
     0
 10
0.0
 20
0.0
 30
0.0
  3
_EX_WCIR
  1

  0
LINE
  5
58
100
AcDbEntity
  8
0
  6
CONTINUOUS
 62
     0
100
AcDbLine
 10
0.0
 20
0.0
 30
0.0
 11
-1.0
 21
0.0
 31
0.0
  0
CIRCLE
  5
59
100
AcDbEntity
  8
0
  6
CONTINUOUS
 62
     0
100
AcDbCircle
 10
0.0
 20
0.0
 30
0.0
 40
0.5
  0
ENDBLK
  5
5A
100
AcDbEntity
  8
0
100
AcDbBlockEnd
  0
BLOCK
  5
5B
100
AcDbEntity
  8
0
100
AcDbBlockBegin
  2
_EX_WCIR2
 70
     0
 10
0.0
 20
0.0
 30
0.0
  3
_EX_WCIR2
  1

  0
LINE
  5
5C
100
AcDbEntity
  8
0
  6
CONTINUOUS
 62
     0
100
AcDbLine
 10
-0.5
 20
0.0
 30
0.0
 11
-1.0
 21
0.0
 31
0.0
  0
CIRCLE
  5
5D
100
AcDbEntity
  8
0
  6
CONTINUOUS
 62
     0
100
AcDbCircle
 10
0.0
 20
0.0
 30
0.0
 40
0.5
  0
ENDBLK
  5
5E
100
AcDbEntity
  8
0
100
AcDbBlockEnd
  0
BLOCK
  5
5F
100
AcDbEntity
  8
0
100
AcDbBlockBegin
  2
_EX_WNORM
 70
     0
 10
0.0
 20
0.0
 30
0.0
  3
_EX_WNORM
  1

  0
LINE
  5
60
100
AcDbEntity
  8
0
  6
CONTINUOUS
 62
     0
100
AcDbLine
 10
-1.0
 20
0.0
 30
0.0
 11
-1.0
 21
0.0
 31
0.0
  0
LINE
  5
61
100
AcDbEntity
  8
0
  6
CONTINUOUS
 62
     0
100
AcDbLine
 10
0.0
 20
0.0
 30
0.0
 11
-1.0
 21
0.166667
 31
0.0
  0
LINE
  5
62
100
AcDbEntity
  8
0
  6
CONTINUOUS
 62
     0
100
AcDbLine
 10
0.0
 20
0.0
 30
0.0
 11
-1.0
 21
-0.166667
 31
0.0
  0
LINE
  5
63
100
AcDbEntity
  8
0
  6
CONTINUOUS
 62
     0
100
AcDbLine
 10
-1.0
 20
0.166667
 30
0.0
 11
-1.0
 21
-0.166667
 31
0.0
  0
ENDBLK
  5
64
100
AcDbEntity
  8
0
100
AcDbBlockEnd
  0
BLOCK
  5
65
100
AcDbEntity
  8
0
100
AcDbBlockBegin
  2
_EX_NNORM
 70
     0
 10
0.0
 20
0.0
 30
0.0
  3
_EX_NNORM
  1

  0
LINE
  5
66
100
AcDbEntity
  8
0
  6
CONTINUOUS
 62
     0
100
AcDbLine
 10
0.0
 20
0.0
 30
0.0
 11
-1.0
 21
0.0
 31
0.0
  0
LINE
  5
67
100
AcDbEntity
  8
0
  6
CONTINUOUS
 62
     0
100
AcDbLine
 10
0.0
 20
0.0
 30
0.0
 11
-1.0
 21
0.166667
 31
0.0
  0
LINE
  5
68
100
AcDbEntity
  8
0
  6
CONTINUOUS
 62
     0
100
AcDbLine
 10
0.0
 20
0.0
 30
0.0
 11
-1.0
 21
-0.166667
 31
0.0
  0
LINE
  5
69
100
AcDbEntity
  8
0
  6
CONTINUOUS
 62
     0
100
AcDbLine
 10
-1.0
 20
0.166667
 30
0.0
 11
-1.0
 21
-0.166667
 31
0.0
  0
ENDBLK
  5
6A
100
AcDbEntity
  8
0
100
AcDbBlockEnd
  0
BLOCK
  5
6B
100
AcDbEntity
  8
0
100
AcDbBlockBegin
  2
_EX_BBOX
 70
     0
 10
0.0
 20
0.0
 30
0.0
  3
_EX_BBOX
  1

  0
LINE
  5
6C
100
AcDbEntity
  8
0
  6
CONTINUOUS
 62
     0
100
AcDbLine
 10
0.0
 20
0.0
 30
0.0
 11
-1.0
 21
0.0
 31
0.0
  0
LINE
  5
6D
100
AcDbEntity
  8
0
  6
CONTINUOUS
 62
     0
100
AcDbLine
 10
-0.5
 20
0.5
 30
0.0
 11
0.5
 21
0.5
 31
0.0
  0
LINE
  5
6E
100
AcDbEntity
  8
0
  6
CONTINUOUS
 62
     0
100
AcDbLine
 10
0.5
 20
0.5
 30
0.0
 11
0.5
 21
-0.5
 31
0.0
  0
LINE
  5
6F
100
AcDbEntity
  8
0
  6
CONTINUOUS
 62
     0
100
AcDbLine
 10
0.5
 20
-0.5
 30
0.0
 11
-0.5
 21
-0.5
 31
0.0
  0
LINE
  5
70
100
AcDbEntity
  8
0
  6
CONTINUOUS
 62
     0
100
AcDbLine
 10
-0.5
 20
-0.5
 30
0.0
 11
-0.5
 21
0.5
 31
0.0
  0
LINE
  5
71
100
AcDbEntity
  8
0
  6
CONTINUOUS
 62
     0
100
AcDbLine
 10
-0.25
 20
0.25
 30
0.0
 11
0.25
 21
0.25
 31
0.0
  0
LINE
  5
72
100
AcDbEntity
  8
0
  6
CONTINUOUS
 62
     0
100
AcDbLine
 10
0.25
 20
0.25
 30
0.0
 11
0.25
 21
-0.25
 31
0.0
  0
LINE
  5
73
100
AcDbEntity
  8
0
  6
CONTINUOUS
 62
     0
100
AcDbLine
 10
0.25
 20
-0.25
 30
0.0
 11
-0.25
 21
-0.25
 31
0.0
  0
LINE
  5
74
100
AcDbEntity
  8
0
  6
CONTINUOUS
 62
     0
100
AcDbLine
 10
-0.25
 20
-0.25
 30
0.0
 11
-0.25
 21
0.25
 31
0.0
  0
ENDBLK
  5
75
100
AcDbEntity
  8
0
100
AcDbBlockEnd
  0
BLOCK
  5
76
100
AcDbEntity
  8
0
100
AcDbBlockBegin
  2
_EX_WBOX
 70
     0
 10
0.0
 20
0.0
 30
0.0
  3
_EX_WBOX
  1

  0
LINE
  5
77
100
AcDbEntity
  8
0
  6
CONTINUOUS
 62
     0
100
AcDbLine
 10
-0.5
 20
0.0
 30
0.0
 11
-1.0
 21
0.0
 31
0.0
  0
LINE
  5
78
100
AcDbEntity
  8
0
  6
CONTINUOUS
 62
     0
100
AcDbLine
 10
-0.5
 20
0.5
 30
0.0
 11
0.5
 21
0.5
 31
0.0
  0
LINE
  5
79
100
AcDbEntity
  8
0
  6
CONTINUOUS
 62
     0
100
AcDbLine
 10
0.5
 20
0.5
 30
0.0
 11
0.5
 21
-0.5
 31
0.0
  0
LINE
  5
7A
100
AcDbEntity
  8
0
  6
CONTINUOUS
 62
     0
100
AcDbLine
 10
0.5
 20
-0.5
 30
0.0
 11
-0.5
 21
-0.5
 31
0.0
  0
LINE
  5
7B
100
AcDbEntity
  8
0
  6
CONTINUOUS
 62
     0
100
AcDbLine
 10
-0.5
 20
-0.5
 30
0.0
 11
-0.5
 21
0.5
 31
0.0
  0
ENDBLK
  5
7C
100
AcDbEntity
  8
0
100
AcDbBlockEnd
  0
BLOCK
  5
7D
100
AcDbEntity
  8
0
100
AcDbBlockBegin
  2
_EX_INTEGRAL
 70
     0
 10
0.0
 20
0.0
 30
0.0
  3
_EX_INTEGRAL
  1

  0
LINE
  5
7E
100
AcDbEntity
  8
0
  6
CONTINUOUS
 62
     0
100
AcDbLine
 10
0.0
 20
0.0
 30
0.0
 11
-1.0
 21
0.0
 31
0.0
  0
ARC
  5
7F
100
AcDbEntity
  8
0
  6
CONTINUOUS
 62
     0
100
AcDbCircle
 10
0.542115
 20
0.164992
 30
0.0
 40
0.56667
100
AcDbArc
 50
73.07249
 51
196.927513
  0
ARC
  5
80
100
AcDbEntity
  8
0
  6
CONTINUOUS
 62
     0
100
AcDbCircle
 10
-0.542115
 20
-0.164992
 30
0.0
 40
0.56667
100
AcDbArc
 50
253.072487
 51
16.927513
  0
ENDBLK
  5
81
100
AcDbEntity
  8
0
100
AcDbBlockEnd
  0
BLOCK
  5
55E
100
AcDbEntity
  8
0
100
AcDbBlockBegin
  2
*D14
 70
    65
 10
0.0
 20
0.0
 30
0.0
  3
*D14
  1

  0
LINE
  5
55F
100
AcDbEntity
  8
LAY-1
  6
CONTINUOUS
 62
     7
100
AcDbLine
 10
255.2
 20
608.5
 30
0.0
 11
255.2
 21
706.0
 31
0.0
  0
LINE
  5
560
100
AcDbEntity
  8
LAY-1
  6
CONTINUOUS
 62
     7
100
AcDbLine
 10
645.2
 20
608.5
 30
0.0
 11
645.2
 21
706.0
 31
0.0
  0
TEXT
  5
561
100
AcDbEntity
  8
LAY-1
  6
CONTINUOUS
 62
     7
100
AcDbText
 10
428.15
 20
707.75
 30
0.0
 40
13.5
  1
Ｗ = 390
 41
0.756
  7
EXCADSTD
 72
     1
 11
450.2
 21
707.75
 31
0.0
100
AcDbText
  0
LINE
  5
562
100
AcDbEntity
  8
LAY-1
  6
CONTINUOUS
 62
     7
100
AcDbLine
 10
255.2
 20
706.0
 30
0.0
 11
645.2
 21
706.0
 31
0.0
  0
CIRCLE
  5
563
100
AcDbEntity
  8
LAY-1
  6
CONTINUOUS
 62
     7
100
AcDbCircle
 10
255.2
 20
706.0
 30
0.0
 40
2.5
  0
CIRCLE
  5
564
100
AcDbEntity
  8
LAY-1
  6
CONTINUOUS
 62
     7
100
AcDbCircle
 10
255.2
 20
706.0
 30
0.0
 40
1.25
  0
CIRCLE
  5
565
100
AcDbEntity
  8
LAY-1
  6
CONTINUOUS
 62
     7
100
AcDbCircle
 10
645.2
 20
706.0
 30
0.0
 40
2.5
  0
CIRCLE
  5
566
100
AcDbEntity
  8
LAY-1
  6
CONTINUOUS
 62
     7
100
AcDbCircle
 10
645.2
 20
706.0
 30
0.0
 40
1.25
  0
ENDBLK
  5
567
100
AcDbEntity
  8
0
100
AcDbBlockEnd
  0
BLOCK
  5
56B
100
AcDbEntity
  8
0
100
AcDbBlockBegin
  2
*D15
 70
    65
 10
0.0
 20
0.0
 30
0.0
  3
*D15
  1

  0
TEXT
  5
56C
100
AcDbEntity
  8
LAY-1
  6
CONTINUOUS
 62
     7
100
AcDbText
 10
163.5
 20
424.0
 30
0.0
 40
13.5
  1
Ｈ = 295
 50
90.0
 41
0.756
  7
EXCADSTD
 72
     1
 11
163.5
 21
446.05
 31
0.0
100
AcDbText
  0
LINE
  5
56D
100
AcDbEntity
  8
LAY-1
  6
CONTINUOUS
 62
     7
100
AcDbLine
 10
165.25
 20
593.55
 30
0.0
 11
165.25
 21
298.55
 31
0.0
  0
CIRCLE
  5
56E
100
AcDbEntity
  8
LAY-1
  6
CONTINUOUS
 62
     7
100
AcDbCircle
 10
165.25
 20
593.55
 30
0.0
 40
2.5
  0
CIRCLE
  5
56F
100
AcDbEntity
  8
LAY-1
  6
CONTINUOUS
 62
     7
100
AcDbCircle
 10
165.25
 20
593.55
 30
0.0
 40
1.25
  0
CIRCLE
  5
570
100
AcDbEntity
  8
LAY-1
  6
CONTINUOUS
 62
     7
100
AcDbCircle
 10
165.25
 20
298.55
 30
0.0
 40
2.5
  0
CIRCLE
  5
571
100
AcDbEntity
  8
LAY-1
  6
CONTINUOUS
 62
     7
100
AcDbCircle
 10
165.25
 20
298.55
 30
0.0
 40
1.25
  0
LINE
  5
572
100
AcDbEntity
  8
LAY-1
  6
CONTINUOUS
 62
     7
100
AcDbLine
 10
236.5
 20
593.55
 30
0.0
 11
165.25
 21
593.55
 31
0.0
  0
LINE
  5
573
100
AcDbEntity
  8
LAY-1
  6
CONTINUOUS
 62
     7
100
AcDbLine
 10
236.5
 20
298.55
 30
0.0
 11
165.25
 21
298.55
 31
0.0
  0
ENDBLK
  5
574
100
AcDbEntity
  8
0
100
AcDbBlockEnd
  0
BLOCK
  5
57B
100
AcDbEntity
  8
0
100
AcDbBlockBegin
  2
*D16
 70
    65
 10
0.0
 20
0.0
 30
0.0
  3
*D16
  1

  0
TEXT
  5
57C
100
AcDbEntity
  8
LAY-1
  6
CONTINUOUS
 62
     7
100
AcDbText
 10
1033.0
 20
682.75
 30
0.0
 40
13.5
  1
19
 41
0.756
  7
EXCADSTD
 72
     1
 11
1043.5
 21
682.75
 31
0.0
100
AcDbText
  0
LINE
  5
57D
100
AcDbEntity
  8
LAY-1
  6
CONTINUOUS
 62
     7
100
AcDbLine
 10
1034.0
 20
681.0
 30
0.0
 11
1053.0
 21
681.0
 31
0.0
  0
CIRCLE
  5
57E
100
AcDbEntity
  8
LAY-1
  6
CONTINUOUS
 62
     7
100
AcDbCircle
 10
1034.0
 20
681.0
 30
0.0
 40
2.5
  0
CIRCLE
  5
57F
100
AcDbEntity
  8
LAY-1
  6
CONTINUOUS
 62
     7
100
AcDbCircle
 10
1034.0
 20
681.0
 30
0.0
 40
1.25
  0
CIRCLE
  5
580
100
AcDbEntity
  8
LAY-1
  6
CONTINUOUS
 62
     7
100
AcDbCircle
 10
1053.0
 20
681.0
 30
0.0
 40
2.5
  0
CIRCLE
  5
581
100
AcDbEntity
  8
LAY-1
  6
CONTINUOUS
 62
     7
100
AcDbCircle
 10
1053.0
 20
681.0
 30
0.0
 40
1.25
  0
ENDBLK
  5
582
100
AcDbEntity
  8
0
100
AcDbBlockEnd
  0
BLOCK
  5
585
100
AcDbEntity
  8
0
100
AcDbBlockBegin
  2
*D17
 70
    65
 10
0.0
 20
0.0
 30
0.0
  3
*D17
  1

  0
LINE
  5
586
100
AcDbEntity
  8
LAY-1
  6
CONTINUOUS
 62
     7
100
AcDbLine
 10
1053.0
 20
612.5
 30
0.0
 11
1053.0
 21
681.0
 31
0.0
  0
TEXT
  5
587
100
AcDbEntity
  8
LAY-1
  6
CONTINUOUS
 62
     7
100
AcDbText
 10
1103.8
 20
682.75
 30
0.0
 40
13.5
  1
131
 41
0.756
  7
EXCADSTD
 72
     1
 11
1118.5
 21
682.75
 31
0.0
100
AcDbText
  0
LINE
  5
588
100
AcDbEntity
  8
LAY-1
  6
CONTINUOUS
 62
     7
100
AcDbLine
 10
1053.0
 20
681.0
 30
0.0
 11
1184.0
 21
681.0
 31
0.0
  0
CIRCLE
  5
589
100
AcDbEntity
  8
LAY-1
  6
CONTINUOUS
 62
     7
100
AcDbCircle
 10
1184.0
 20
681.0
 30
0.0
 40
2.5
  0
CIRCLE
  5
58A
100
AcDbEntity
  8
LAY-1
  6
CONTINUOUS
 62
     7
100
AcDbCircle
 10
1184.0
 20
681.0
 30
0.0
 40
1.25
  0
ENDBLK
  5
58B
100
AcDbEntity
  8
0
100
AcDbBlockEnd
  0
BLOCK
  5
58E
100
AcDbEntity
  8
0
100
AcDbBlockBegin
  2
*D18
 70
    65
 10
0.0
 20
0.0
 30
0.0
  3
*D18
  1

  0
LINE
  5
58F
100
AcDbEntity
  8
LAY-1
  6
CONTINUOUS
 62
     7
100
AcDbLine
 10
1034.0
 20
572.999999
 30
0.0
 11
1034.0
 21
706.0
 31
0.0
  0
LINE
  5
590
100
AcDbEntity
  8
LAY-1
  6
CONTINUOUS
 62
     7
100
AcDbLine
 10
1184.0
 20
612.5
 30
0.0
 11
1184.0
 21
706.0
 31
0.0
  0
TEXT
  5
591
100
AcDbEntity
  8
LAY-1
  6
CONTINUOUS
 62
     7
100
AcDbText
 10
1086.95
 20
707.75
 30
0.0
 40
13.5
  1
Ｄ = 150
 41
0.756
  7
EXCADSTD
 72
     1
 11
1109.0
 21
707.75
 31
0.0
100
AcDbText
  0
LINE
  5
592
100
AcDbEntity
  8
LAY-1
  6
CONTINUOUS
 62
     7
100
AcDbLine
 10
1034.0
 20
706.0
 30
0.0
 11
1184.0
 21
706.0
 31
0.0
  0
CIRCLE
  5
593
100
AcDbEntity
  8
LAY-1
  6
CONTINUOUS
 62
     7
100
AcDbCircle
 10
1034.0
 20
706.0
 30
0.0
 40
2.5
  0
CIRCLE
  5
594
100
AcDbEntity
  8
LAY-1
  6
CONTINUOUS
 62
     7
100
AcDbCircle
 10
1034.0
 20
706.0
 30
0.0
 40
1.25
  0
CIRCLE
  5
595
100
AcDbEntity
  8
LAY-1
  6
CONTINUOUS
 62
     7
100
AcDbCircle
 10
1184.0
 20
706.0
 30
0.0
 40
2.5
  0
CIRCLE
  5
596
100
AcDbEntity
  8
LAY-1
  6
CONTINUOUS
 62
     7
100
AcDbCircle
 10
1184.0
 20
706.0
 30
0.0
 40
1.25
  0
ENDBLK
  5
597
100
AcDbEntity
  8
0
100
AcDbBlockEnd
  0
BLOCK
  5
59A
100
AcDbEntity
  8
0
100
AcDbBlockBegin
  2
*D19
 70
    65
 10
0.0
 20
0.0
 30
0.0
  3
*D19
  1

  0
LINE
  5
59B
100
AcDbEntity
  8
LAY-1
  6
CONTINUOUS
 62
     7
100
AcDbLine
 10
255.2
 20
1184.5
 30
0.0
 11
255.2
 21
1271.0
 31
0.0
  0
LINE
  5
59C
100
AcDbEntity
  8
LAY-1
  6
CONTINUOUS
 62
     7
100
AcDbLine
 10
645.2
 20
1184.5
 30
0.0
 11
645.2
 21
1271.0
 31
0.0
  0
TEXT
  5
59D
100
AcDbEntity
  8
LAY-1
  6
CONTINUOUS
 62
     7
100
AcDbText
 10
428.15
 20
1272.75
 30
0.0
 40
13.5
  1
Ｗ = 390
 41
0.756
  7
EXCADSTD
 72
     1
 11
450.2
 21
1272.75
 31
0.0
100
AcDbText
  0
LINE
  5
59E
100
AcDbEntity
  8
LAY-1
  6
CONTINUOUS
 62
     7
100
AcDbLine
 10
255.2
 20
1271.0
 30
0.0
 11
645.2
 21
1271.0
 31
0.0
  0
CIRCLE
  5
59F
100
AcDbEntity
  8
LAY-1
  6
CONTINUOUS
 62
     7
100
AcDbCircle
 10
255.2
 20
1271.0
 30
0.0
 40
2.5
  0
CIRCLE
  5
5A0
100
AcDbEntity
  8
LAY-1
  6
CONTINUOUS
 62
     7
100
AcDbCircle
 10
255.2
 20
1271.0
 30
0.0
 40
1.25
  0
CIRCLE
  5
5A1
100
AcDbEntity
  8
LAY-1
  6
CONTINUOUS
 62
     7
100
AcDbCircle
 10
645.2
 20
1271.0
 30
0.0
 40
2.5
  0
CIRCLE
  5
5A2
100
AcDbEntity
  8
LAY-1
  6
CONTINUOUS
 62
     7
100
AcDbCircle
 10
645.2
 20
1271.0
 30
0.0
 40
1.25
  0
ENDBLK
  5
5A3
100
AcDbEntity
  8
0
100
AcDbBlockEnd
  0
BLOCK
  5
5A6
100
AcDbEntity
  8
0
100
AcDbBlockBegin
  2
*D20
 70
    65
 10
0.0
 20
0.0
 30
0.0
  3
*D20
  1

  0
LINE
  5
5A7
100
AcDbEntity
  8
LAY-1
  6
CONTINUOUS
 62
     7
100
AcDbLine
 10
1519.8
 20
593.55
 30
0.0
 11
1448.55
 21
593.55
 31
0.0
  0
TEXT
  5
5A8
100
AcDbEntity
  8
LAY-1
  6
CONTINUOUS
 62
     7
100
AcDbText
 10
1446.8
 20
424.0
 30
0.0
 40
13.5
  1
Ｈ = 295
 50
90.0
 41
0.756
  7
EXCADSTD
 72
     1
 11
1446.8
 21
446.05
 31
0.0
100
AcDbText
  0
LINE
  5
5A9
100
AcDbEntity
  8
LAY-1
  6
CONTINUOUS
 62
     7
100
AcDbLine
 10
1448.55
 20
593.55
 30
0.0
 11
1448.55
 21
298.55
 31
0.0
  0
CIRCLE
  5
5AA
100
AcDbEntity
  8
LAY-1
  6
CONTINUOUS
 62
     7
100
AcDbCircle
 10
1448.55
 20
593.55
 30
0.0
 40
2.5
  0
CIRCLE
  5
5AB
100
AcDbEntity
  8
LAY-1
  6
CONTINUOUS
 62
     7
100
AcDbCircle
 10
1448.55
 20
593.55
 30
0.0
 40
1.25
  0
CIRCLE
  5
5AC
100
AcDbEntity
  8
LAY-1
  6
CONTINUOUS
 62
     7
100
AcDbCircle
 10
1448.55
 20
298.55
 30
0.0
 40
2.5
  0
CIRCLE
  5
5AD
100
AcDbEntity
  8
LAY-1
  6
CONTINUOUS
 62
     7
100
AcDbCircle
 10
1448.55
 20
298.55
 30
0.0
 40
1.25
  0
LINE
  5
5AE
100
AcDbEntity
  8
LAY-1
  6
CONTINUOUS
 62
     7
100
AcDbLine
 10
1519.8
 20
298.55
 30
0.0
 11
1448.55
 21
298.55
 31
0.0
  0
ENDBLK
  5
5AF
100
AcDbEntity
  8
0
100
AcDbBlockEnd
  0
BLOCK
  5
5B2
100
AcDbEntity
  8
0
100
AcDbBlockBegin
  2
*D21
 70
    65
 10
0.0
 20
0.0
 30
0.0
  3
*D21
  1

  0
LINE
  5
5B3
100
AcDbEntity
  8
LAY-1
  6
CONTINUOUS
 62
     7
100
AcDbLine
 10
1538.5
 20
612.5
 30
0.0
 11
1538.5
 21
706.0
 31
0.0
  0
LINE
  5
5B4
100
AcDbEntity
  8
LAY-1
  6
CONTINUOUS
 62
     7
100
AcDbLine
 10
1928.5
 20
612.5
 30
0.0
 11
1928.5
 21
706.0
 31
0.0
  0
TEXT
  5
5B5
100
AcDbEntity
  8
LAY-1
  6
CONTINUOUS
 62
     7
100
AcDbText
 10
1711.45
 20
707.75
 30
0.0
 40
13.5
  1
Ｗ = 390
 41
0.756
  7
EXCADSTD
 72
     1
 11
1733.5
 21
707.75
 31
0.0
100
AcDbText
  0
LINE
  5
5B6
100
AcDbEntity
  8
LAY-1
  6
CONTINUOUS
 62
     7
100
AcDbLine
 10
1538.5
 20
706.0
 30
0.0
 11
1928.5
 21
706.0
 31
0.0
  0
CIRCLE
  5
5B7
100
AcDbEntity
  8
LAY-1
  6
CONTINUOUS
 62
     7
100
AcDbCircle
 10
1538.5
 20
706.0
 30
0.0
 40
2.5
  0
CIRCLE
  5
5B8
100
AcDbEntity
  8
LAY-1
  6
CONTINUOUS
 62
     7
100
AcDbCircle
 10
1538.5
 20
706.0
 30
0.0
 40
1.25
  0
CIRCLE
  5
5B9
100
AcDbEntity
  8
LAY-1
  6
CONTINUOUS
 62
     7
100
AcDbCircle
 10
1928.5
 20
706.0
 30
0.0
 40
2.5
  0
CIRCLE
  5
5BA
100
AcDbEntity
  8
LAY-1
  6
CONTINUOUS
 62
     7
100
AcDbCircle
 10
1928.5
 20
706.0
 30
0.0
 40
1.25
  0
ENDBLK
  5
5BB
100
AcDbEntity
  8
0
100
AcDbBlockEnd
  0
BLOCK
  5
5D3
100
AcDbEntity
  8
0
100
AcDbBlockBegin
  2
*D22
 70
    65
 10
0.0
 20
0.0
 30
0.0
  3
*D22
  1

  0
LINE
  5
5D4
100
AcDbEntity
  8
LAY-1
  6
CONTINUOUS
 62
     7
100
AcDbLine
 10
1733.5
 20
475.5
 30
0.0
 11
1733.5
 21
681.0
 31
0.0
  0
TEXT
  5
5D5
100
AcDbEntity
  8
LAY-1
  6
CONTINUOUS
 62
     7
100
AcDbText
 10
1621.3
 20
682.75
 30
0.0
 40
13.5
  1
195
 41
0.756
  7
EXCADSTD
 72
     1
 11
1636.0
 21
682.75
 31
0.0
100
AcDbText
  0
LINE
  5
5D6
100
AcDbEntity
  8
LAY-1
  6
CONTINUOUS
 62
     7
100
AcDbLine
 10
1538.5
 20
681.0
 30
0.0
 11
1733.5
 21
681.0
 31
0.0
  0
CIRCLE
  5
5D7
100
AcDbEntity
  8
LAY-1
  6
CONTINUOUS
 62
     7
100
AcDbCircle
 10
1538.5
 20
681.0
 30
0.0
 40
2.5
  0
CIRCLE
  5
5D8
100
AcDbEntity
  8
LAY-1
  6
CONTINUOUS
 62
     7
100
AcDbCircle
 10
1538.5
 20
681.0
 30
0.0
 40
1.25
  0
CIRCLE
  5
5D9
100
AcDbEntity
  8
LAY-1
  6
CONTINUOUS
 62
     7
100
AcDbCircle
 10
1733.5
 20
681.0
 30
0.0
 40
2.5
  0
CIRCLE
  5
5DA
100
AcDbEntity
  8
LAY-1
  6
CONTINUOUS
 62
     7
100
AcDbCircle
 10
1733.5
 20
681.0
 30
0.0
 40
1.25
  0
ENDBLK
  5
5DB
100
AcDbEntity
  8
0
100
AcDbBlockEnd
  0
BLOCK
  5
5DE
100
AcDbEntity
  8
0
100
AcDbBlockBegin
  2
*D23
 70
    65
 10
0.0
 20
0.0
 30
0.0
  3
*D23
  1

  0
TEXT
  5
5DF
100
AcDbEntity
  8
LAY-1
  6
CONTINUOUS
 62
     7
100
AcDbText
 10
1816.3
 20
682.75
 30
0.0
 40
13.5
  1
195
 41
0.756
  7
EXCADSTD
 72
     1
 11
1831.0
 21
682.75
 31
0.0
100
AcDbText
  0
LINE
  5
5E0
100
AcDbEntity
  8
LAY-1
  6
CONTINUOUS
 62
     7
100
AcDbLine
 10
1733.5
 20
681.0
 30
0.0
 11
1928.5
 21
681.0
 31
0.0
  0
CIRCLE
  5
5E1
100
AcDbEntity
  8
LAY-1
  6
CONTINUOUS
 62
     7
100
AcDbCircle
 10
1928.5
 20
681.0
 30
0.0
 40
2.5
  0
CIRCLE
  5
5E2
100
AcDbEntity
  8
LAY-1
  6
CONTINUOUS
 62
     7
100
AcDbCircle
 10
1928.5
 20
681.0
 30
0.0
 40
1.25
  0
ENDBLK
  5
5E3
100
AcDbEntity
  8
0
100
AcDbBlockEnd
  0
BLOCK
  5
5E6
100
AcDbEntity
  8
0
100
AcDbBlockBegin
  2
*D24
 70
    65
 10
0.0
 20
0.0
 30
0.0
  3
*D24
  1

  0
TEXT
  5
5E7
100
AcDbEntity
  8
LAY-1
  6
CONTINUOUS
 62
     7
100
AcDbText
 10
1471.8
 20
371.35
 30
0.0
 40
13.5
  1
120
 50
90.0
 41
0.756
  7
EXCADSTD
 72
     1
 11
1471.8
 21
386.05
 31
0.0
100
AcDbText
  0
LINE
  5
5E8
100
AcDbEntity
  8
LAY-1
  6
CONTINUOUS
 62
     7
100
AcDbLine
 10
1473.55
 20
326.05
 30
0.0
 11
1473.55
 21
446.05
 31
0.0
  0
CIRCLE
  5
5E9
100
AcDbEntity
  8
LAY-1
  6
CONTINUOUS
 62
     7
100
AcDbCircle
 10
1473.55
 20
326.05
 30
0.0
 40
2.5
  0
CIRCLE
  5
5EA
100
AcDbEntity
  8
LAY-1
  6
CONTINUOUS
 62
     7
100
AcDbCircle
 10
1473.55
 20
326.05
 30
0.0
 40
1.25
  0
CIRCLE
  5
5EB
100
AcDbEntity
  8
LAY-1
  6
CONTINUOUS
 62
     7
100
AcDbCircle
 10
1473.55
 20
446.05
 30
0.0
 40
2.5
  0
CIRCLE
  5
5EC
100
AcDbEntity
  8
LAY-1
  6
CONTINUOUS
 62
     7
100
AcDbCircle
 10
1473.55
 20
446.05
 30
0.0
 40
1.25
  0
LINE
  5
5ED
100
AcDbEntity
  8
LAY-1
  6
CONTINUOUS
 62
     7
100
AcDbLine
 10
1696.5
 20
446.05
 30
0.0
 11
1473.55
 21
446.05
 31
0.0
  0
ENDBLK
  5
5EE
100
AcDbEntity
  8
0
100
AcDbBlockEnd
  0
BLOCK
  5
5F1
100
AcDbEntity
  8
0
100
AcDbBlockBegin
  2
*D25
 70
    65
 10
0.0
 20
0.0
 30
0.0
  3
*D25
  1

  0
LINE
  5
5F2
100
AcDbEntity
  8
LAY-1
  6
CONTINUOUS
 62
     7
100
AcDbLine
 10
1473.55
 20
446.05
 30
0.0
 11
1473.55
 21
593.55
 31
0.0
  0
CIRCLE
  5
5F3
100
AcDbEntity
  8
LAY-1
  6
CONTINUOUS
 62
     7
100
AcDbCircle
 10
1473.55
 20
593.55
 30
0.0
 40
2.5
  0
CIRCLE
  5
5F4
100
AcDbEntity
  8
LAY-1
  6
CONTINUOUS
 62
     7
100
AcDbCircle
 10
1473.55
 20
593.55
 30
0.0
 40
1.25
  0
TEXT
  5
5F5
100
AcDbEntity
  8
LAY-1
  6
CONTINUOUS
 62
     7
100
AcDbText
 10
1471.8
 20
499.85
 30
0.0
 40
13.5
  1
147.5
 50
90.0
 41
0.756
  7
EXCADSTD
 72
     1
 11
1471.8
 21
519.8
 31
0.0
100
AcDbText
  0
ENDBLK
  5
5F6
100
AcDbEntity
  8
0
100
AcDbBlockEnd
  0
BLOCK
  5
5F9
100
AcDbEntity
  8
0
100
AcDbBlockBegin
  2
*D26
 70
    65
 10
0.0
 20
0.0
 30
0.0
  3
*D26
  1

  0
LINE
  5
5FA
100
AcDbEntity
  8
LAY-1
  6
CONTINUOUS
 62
     7
100
AcDbLine
 10
234.500001
 20
1019.0
 30
0.0
 11
165.25
 21
1019.0
 31
0.0
  0
LINE
  5
5FB
100
AcDbEntity
  8
LAY-1
  6
CONTINUOUS
 62
     7
100
AcDbLine
 10
234.500001
 20
1169.0
 30
0.0
 11
165.25
 21
1169.0
 31
0.0
  0
TEXT
  5
5FC
100
AcDbEntity
  8
LAY-1
  6
CONTINUOUS
 62
     7
100
AcDbText
 10
163.5
 20
1071.95
 30
0.0
 40
13.5
  1
Ｄ = 150
 50
90.0
 41
0.756
  7
EXCADSTD
 72
     1
 11
163.5
 21
1094.0
 31
0.0
100
AcDbText
  0
LINE
  5
5FD
100
AcDbEntity
  8
LAY-1
  6
CONTINUOUS
 62
     7
100
AcDbLine
 10
165.25
 20
1019.0
 30
0.0
 11
165.25
 21
1169.0
 31
0.0
  0
CIRCLE
  5
5FE
100
AcDbEntity
  8
LAY-1
  6
CONTINUOUS
 62
     7
100
AcDbCircle
 10
165.25
 20
1019.0
 30
0.0
 40
2.5
  0
CIRCLE
  5
5FF
100
AcDbEntity
  8
LAY-1
  6
CONTINUOUS
 62
     7
100
AcDbCircle
 10
165.25
 20
1019.0
 30
0.0
 40
1.25
  0
CIRCLE
  5
600
100
AcDbEntity
  8
LAY-1
  6
CONTINUOUS
 62
     7
100
AcDbCircle
 10
165.25
 20
1169.0
 30
0.0
 40
2.5
  0
CIRCLE
  5
601
100
AcDbEntity
  8
LAY-1
  6
CONTINUOUS
 62
     7
100
AcDbCircle
 10
165.25
 20
1169.0
 30
0.0
 40
1.25
  0
ENDBLK
  5
602
100
AcDbEntity
  8
0
100
AcDbBlockEnd
  0
BLOCK
  5
6D4
100
AcDbEntity
  8
0
100
AcDbBlockBegin
  2
*D27
 70
    65
 10
0.0
 20
0.0
 30
0.0
  3
*D27
  1

  0
TEXT
  5
6D5
100
AcDbEntity
  8
LAY-1
  6
CONTINUOUS
 62
     7
100
AcDbText
 10
416.6
 20
682.75
 30
0.0
 40
13.5
  1
投 入 口　343
 41
0.756
  7
EXCADSTD
 72
     1
 11
450.2
 21
682.75
 31
0.0
100
AcDbText
  0
LINE
  5
6D6
100
AcDbEntity
  8
LAY-1
  6
CONTINUOUS
 62
     7
100
AcDbLine
 10
278.7
 20
608.5
 30
0.0
 11
278.7
 21
681.0
 31
0.0
  0
LINE
  5
6D7
100
AcDbEntity
  8
LAY-1
  6
CONTINUOUS
 62
     7
100
AcDbLine
 10
621.7
 20
608.5
 30
0.0
 11
621.7
 21
681.0
 31
0.0
  0
LINE
  5
6D8
100
AcDbEntity
  8
LAY-1
  6
CONTINUOUS
 62
     7
100
AcDbLine
 10
278.7
 20
681.0
 30
0.0
 11
621.7
 21
681.0
 31
0.0
  0
CIRCLE
  5
6D9
100
AcDbEntity
  8
LAY-1
  6
CONTINUOUS
 62
     7
100
AcDbCircle
 10
278.7
 20
681.0
 30
0.0
 40
2.5
  0
CIRCLE
  5
6DA
100
AcDbEntity
  8
LAY-1
  6
CONTINUOUS
 62
     7
100
AcDbCircle
 10
278.7
 20
681.0
 30
0.0
 40
1.25
  0
CIRCLE
  5
6DB
100
AcDbEntity
  8
LAY-1
  6
CONTINUOUS
 62
     7
100
AcDbCircle
 10
621.7
 20
681.0
 30
0.0
 40
2.5
  0
CIRCLE
  5
6DC
100
AcDbEntity
  8
LAY-1
  6
CONTINUOUS
 62
     7
100
AcDbCircle
 10
621.7
 20
681.0
 30
0.0
 40
1.25
  0
ENDBLK
  5
6DD
100
AcDbEntity
  8
0
100
AcDbBlockEnd
  0
BLOCK
  5
6E0
100
AcDbEntity
  8
0
100
AcDbBlockBegin
  2
*D28
 70
    65
 10
0.0
 20
0.0
 30
0.0
  3
*D28
  1

  0
TEXT
  5
6E1
100
AcDbEntity
  8
LAY-1
  6
CONTINUOUS
 62
     7
100
AcDbText
 10
258.7
 20
682.75
 30
0.0
 40
13.5
  1
23.5
 41
0.756
  7
EXCADSTD
 72
     1
 11
274.45
 21
682.75
 31
0.0
100
AcDbText
  0
LINE
  5
6E2
100
AcDbEntity
  8
LAY-1
  6
CONTINUOUS
 62
     7
100
AcDbLine
 10
255.2
 20
681.0
 30
0.0
 11
278.7
 21
681.0
 31
0.0
  0
CIRCLE
  5
6E3
100
AcDbEntity
  8
LAY-1
  6
CONTINUOUS
 62
     7
100
AcDbCircle
 10
255.2
 20
681.0
 30
0.0
 40
2.5
  0
CIRCLE
  5
6E4
100
AcDbEntity
  8
LAY-1
  6
CONTINUOUS
 62
     7
100
AcDbCircle
 10
255.2
 20
681.0
 30
0.0
 40
1.25
  0
CIRCLE
  5
6E5
100
AcDbEntity
  8
LAY-1
  6
CONTINUOUS
 62
     7
100
AcDbCircle
 10
278.7
 20
681.0
 30
0.0
 40
2.5
  0
CIRCLE
  5
6E6
100
AcDbEntity
  8
LAY-1
  6
CONTINUOUS
 62
     7
100
AcDbCircle
 10
278.7
 20
681.0
 30
0.0
 40
1.25
  0
ENDBLK
  5
6E7
100
AcDbEntity
  8
0
100
AcDbBlockEnd
  0
BLOCK
  5
6EA
100
AcDbEntity
  8
0
100
AcDbBlockBegin
  2
*D29
 70
    65
 10
0.0
 20
0.0
 30
0.0
  3
*D29
  1

  0
TEXT
  5
6EB
100
AcDbEntity
  8
LAY-1
  6
CONTINUOUS
 62
     7
100
AcDbText
 10
610.7
 20
682.75
 30
0.0
 40
13.5
  1
23.5
 41
0.756
  7
EXCADSTD
 72
     1
 11
626.45
 21
682.75
 31
0.0
100
AcDbText
  0
LINE
  5
6EC
100
AcDbEntity
  8
LAY-1
  6
CONTINUOUS
 62
     7
100
AcDbLine
 10
621.7
 20
681.0
 30
0.0
 11
645.2
 21
681.0
 31
0.0
  0
CIRCLE
  5
6ED
100
AcDbEntity
  8
LAY-1
  6
CONTINUOUS
 62
     7
100
AcDbCircle
 10
621.7
 20
681.0
 30
0.0
 40
2.5
  0
CIRCLE
  5
6EE
100
AcDbEntity
  8
LAY-1
  6
CONTINUOUS
 62
     7
100
AcDbCircle
 10
621.7
 20
681.0
 30
0.0
 40
1.25
  0
CIRCLE
  5
6EF
100
AcDbEntity
  8
LAY-1
  6
CONTINUOUS
 62
     7
100
AcDbCircle
 10
645.2
 20
681.0
 30
0.0
 40
2.5
  0
CIRCLE
  5
6F0
100
AcDbEntity
  8
LAY-1
  6
CONTINUOUS
 62
     7
100
AcDbCircle
 10
645.2
 20
681.0
 30
0.0
 40
1.25
  0
ENDBLK
  5
6F1
100
AcDbEntity
  8
0
100
AcDbBlockEnd
  0
BLOCK
  5
6FA
100
AcDbEntity
  8
0
100
AcDbBlockBegin
  2
*D30
 70
    65
 10
0.0
 20
0.0
 30
0.0
  3
*D30
  1

  0
LINE
  5
6FB
100
AcDbEntity
  8
LAY-1
  6
CONTINUOUS
 62
     7
100
AcDbLine
 10
494.0
 20
539.05
 30
0.0
 11
494.0
 21
570.801952
 31
0.0
  0
CIRCLE
  5
6FC
100
AcDbEntity
  8
LAY-1
  6
CONTINUOUS
 62
     7
100
AcDbCircle
 10
494.0
 20
539.05
 30
0.0
 40
2.5
  0
CIRCLE
  5
6FD
100
AcDbEntity
  8
LAY-1
  6
CONTINUOUS
 62
     7
100
AcDbCircle
 10
494.0
 20
539.05
 30
0.0
 40
1.25
  0
CIRCLE
  5
6FE
100
AcDbEntity
  8
LAY-1
  6
CONTINUOUS
 62
     7
100
AcDbCircle
 10
494.0
 20
570.801952
 30
0.0
 40
2.5
  0
CIRCLE
  5
6FF
100
AcDbEntity
  8
LAY-1
  6
CONTINUOUS
 62
     7
100
AcDbCircle
 10
494.0
 20
570.801952
 30
0.0
 40
1.25
  0
TEXT
  5
700
100
AcDbEntity
  8
LAY-1
  6
CONTINUOUS
 62
     7
100
AcDbText
 10
492.25
 20
545.925976
 30
0.0
 40
13.5
  1
32
 50
90.0
 41
0.756
  7
EXCADSTD
 72
     1
 11
492.25
 21
556.425976
 31
0.0
100
AcDbText
  0
ENDBLK
  5
701
100
AcDbEntity
  8
0
100
AcDbBlockEnd
  0
BLOCK
  5
70C
100
AcDbEntity
  8
0
100
AcDbBlockBegin
  2
*D31
 70
    65
 10
0.0
 20
0.0
 30
0.0
  3
*D31
  1

  0
LINE
  5
70D
100
AcDbEntity
  8
LAY-1
  6
CONTINUOUS
 62
     7
100
AcDbLine
 10
1473.55
 20
326.05
 30
0.0
 11
1473.55
 21
298.55
 31
0.0
  0
CIRCLE
  5
70E
100
AcDbEntity
  8
LAY-1
  6
CONTINUOUS
 62
     7
100
AcDbCircle
 10
1473.55
 20
326.05
 30
0.0
 40
2.5
  0
CIRCLE
  5
70F
100
AcDbEntity
  8
LAY-1
  6
CONTINUOUS
 62
     7
100
AcDbCircle
 10
1473.55
 20
326.05
 30
0.0
 40
1.25
  0
CIRCLE
  5
710
100
AcDbEntity
  8
LAY-1
  6
CONTINUOUS
 62
     7
100
AcDbCircle
 10
1473.55
 20
298.55
 30
0.0
 40
2.5
  0
CIRCLE
  5
711
100
AcDbEntity
  8
LAY-1
  6
CONTINUOUS
 62
     7
100
AcDbCircle
 10
1473.55
 20
298.55
 30
0.0
 40
1.25
  0
LINE
  5
712
100
AcDbEntity
  8
LAY-1
  6
CONTINUOUS
 62
     7
100
AcDbLine
 10
1696.5
 20
326.05
 30
0.0
 11
1473.55
 21
326.05
 31
0.0
  0
TEXT
  5
713
100
AcDbEntity
  8
LAY-1
  6
CONTINUOUS
 62
     7
100
AcDbText
 10
1471.8
 20
302.55
 30
0.0
 40
13.5
  1
27.5
 50
90.0
 41
0.756
  7
EXCADSTD
 72
     1
 11
1471.8
 21
318.3
 31
0.0
100
AcDbText
  0
ENDBLK
  5
714
100
AcDbEntity
  8
0
100
AcDbBlockEnd
  0
ENDSEC
  0
SECTION
  2
ENTITIES
  0
CIRCLE
  5
82
100
AcDbEntity
  8
LAY-1
  6
CONTINUOUS
 62
     7
100
AcDbCircle
 10
401.025583
 20
374.753234
 30
0.0
 40
12.5
  0
MTEXT
  5
83
100
AcDbEntity
  8
LAY-1
  6
CONTINUOUS
 62
     7
100
AcDbMText
 10
401.525583
 20
382.708186
 30
0.0
 40
15.909903
 41
47.729708
 71
     2
 72
     1
  1
{\W0.8400;４}
  7
EXCADSTD
  0
LEADER
  5
84
100
AcDbEntity
  8
LAY-1
  6
CONTINUOUS
 62
     7
100
AcDbLeader
  3
STANDARD
 73
     3
 74
     1
 75
     0
 40
0.0
 76
     2
 10
436.776768
 20
348.06895
 30
0.0
 10
411.04292
 20
367.276406
 30
0.0
 77
     7
1001
ACAD
1000
DSTYLE
1002
{
1070
    41
1040
10.0
1070
     5
1000
_EX_NORM
1070
     6
1000
_EX_NORM
1070
     7
1000
_EX_NORM
1070
   341
1005
26
1002
}
  0
MTEXT
  5
85
100
AcDbEntity
  8
LAY-1
  6
CONTINUOUS
 62
     7
100
AcDbMText
 10
1823.268479
 20
414.425099
 30
0.0
 40
13.5
 41
310.5
 71
     2
 72
     1
  1
{\T0.83;\W0.8400;取付穴：２－φ８穴}
  7
EXCADSTD
  0
LEADER
  5
86
100
AcDbEntity
  8
LAY-1
  6
CONTINUOUS
 62
     7
100
AcDbLeader
  3
STANDARD
 73
     3
 74
     1
 75
     0
 40
0.0
 76
     3
 10
1735.809401
 20
442.05
 30
0.0
 10
1759.985886
 20
400.175099
 30
0.0
 10
1886.551071
 20
400.175099
 30
0.0
 77
     7
1001
ACAD
1000
DSTYLE
1002
{
1070
    41
1040
10.0
1070
     5
1000
_EX_NORM
1070
     6
1000
_EX_NORM
1070
     7
1000
_EX_NORM
1070
   341
1005
26
1002
}
  0
LEADER
  5
87
100
AcDbEntity
  8
LAY-1
  6
CONTINUOUS
 62
     7
100
AcDbLeader
  3
STANDARD
 73
     3
 74
     1
 75
     0
 40
0.0
 76
     2
 10
538.359844
 20
417.079846
 30
0.0
 10
568.591379
 20
446.873471
 30
0.0
 77
     7
1001
ACAD
1000
DSTYLE
1002
{
1070
    41
1040
10.0
1070
     5
1000
_EX_NORM
1070
     6
1000
_EX_NORM
1070
     7
1000
_EX_NORM
1070
   341
1005
26
1002
}
  0
CIRCLE
  5
88
100
AcDbEntity
  8
LAY-1
  6
CONTINUOUS
 62
     7
100
AcDbCircle
 10
577.494459
 20
455.64759
 30
0.0
 40
12.5
  0
MTEXT
  5
89
100
AcDbEntity
  8
LAY-1
  6
CONTINUOUS
 62
     7
100
AcDbMText
 10
577.994459
 20
463.602541
 30
0.0
 40
15.909903
 41
47.729708
 71
     2
 72
     1
  1
{\W0.8400;３}
  7
EXCADSTD
  0
LINE
  5
8A
100
AcDbEntity
  8
LAY-1
  6
CONTINUOUS
 62
   134
100
AcDbLine
 10
1400.0
 20
50.0
 30
0.0
 11
1400.0
 21
150.0
 31
0.0
  0
LINE
  5
8B
100
AcDbEntity
  8
LAY-1
  6
CONTINUOUS
 62
     7
100
AcDbLine
 10
1400.0
 20
75.0
 30
0.0
 11
1725.0
 21
75.0
 31
0.0
  0
LINE
  5
8C
100
AcDbEntity
  8
LAY-1
  6
CONTINUOUS
 62
   134
100
AcDbLine
 10
1500.0
 20
150.0
 30
0.0
 11
1500.0
 21
50.0
 31
0.0
  0
MTEXT
  5
8E
100
AcDbEntity
  8
LAY-1
  6
CONTINUOUS
 62
     7
100
AcDbMText
 10
1450.0
 20
143.125
 30
0.0
 40
8.4375
 41
81.0
 71
     2
 72
     1
  1
{\T1.40;材質}
  7
EXCADTTF1
  0
LINE
  5
8F
100
AcDbEntity
  8
LAY-1
  6
CONTINUOUS
 62
     7
100
AcDbLine
 10
1400.0
 20
100.0
 30
0.0
 11
2050.0
 21
100.0
 31
0.0
  0
MTEXT
  5
90
100
AcDbEntity
  8
LAY-1
  6
CONTINUOUS
 62
     7
100
AcDbMText
 10
1450.0
 20
118.125
 30
0.0
 40
8.4375
 41
81.0
 71
     2
 72
     1
  1
{\T1.40;仕上}
  7
EXCADTTF1
  0
MTEXT
  5
91
100
AcDbEntity
  8
LAY-1
  6
CONTINUOUS
 62
     7
100
AcDbMText
 10
1450.0
 20
93.125
 30
0.0
 40
8.4375
 41
81.0
 71
     2
 72
     1
  1
{\T1.40;尺度}
  7
EXCADTTF1
  0
MTEXT
  5
92
100
AcDbEntity
  8
LAY-1
  6
CONTINUOUS
 62
     7
100
AcDbMText
 10
1450.0
 20
68.125
 30
0.0
 40
8.4375
 41
128.25
 71
     2
 72
     1
  1
{\T1.40;作成日}
  7
EXCADTTF1
  0
LINE
  5
93
100
AcDbEntity
  8
LAY-1
  6
CONTINUOUS
 62
   134
100
AcDbLine
 10
1300.0
 20
50.0
 30
0.0
 11
1300.0
 21
150.0
 31
0.0
  0
LINE
  5
94
100
AcDbEntity
  8
LAY-1
  6
CONTINUOUS
 62
   134
100
AcDbLine
 10
1200.0
 20
50.0
 30
0.0
 11
1200.0
 21
150.0
 31
0.0
  0
LINE
  5
95
100
AcDbEntity
  8
LAY-1
  6
CONTINUOUS
 62
     7
100
AcDbLine
 10
1200.0
 20
125.0
 30
0.0
 11
1725.0
 21
125.0
 31
0.0
  0
LINE
  5
96
100
AcDbEntity
  8
LAY-1
  6
CONTINUOUS
 62
   134
100
AcDbLine
 10
550.0
 20
50.0
 30
0.0
 11
550.0
 21
150.0
 31
0.0
  0
MTEXT
  5
97
100
AcDbEntity
  8
LAY-1
  6
CONTINUOUS
 62
     7
100
AcDbMText
 10
1350.0
 20
143.125
 30
0.0
 40
8.4375
 41
135.0
 71
     2
 72
     1
  1
{作図担当}
  7
EXCADTTF1
  0
MTEXT
  5
98
100
AcDbEntity
  8
LAY-1
  6
CONTINUOUS
 62
     7
100
AcDbMText
 10
1250.0
 20
143.125
 30
0.0
 40
8.4375
 41
67.5
 71
     2
 72
     1
  1
{検図}
  7
EXCADTTF1
  0
HATCH
  5
99
100
AcDbEntity
  8
LAY-1
  6
CONTINUOUS
 62
     7
100
AcDbHatch
 10
0.0
 20
0.0
 30
0.0
210
0.0
220
0.0
230
1.0
  2
SOLID
 70
     1
 71
     1
 91
        1
 92
        2
 72
     1
 73
     1
 93
      319
 10
787.61936959927243
 20
115.87364019028503
 42
0.0
 10
787.65176959927328
 20
115.70084019028504
 42
0.0
 10
787.67336959927286
 20
115.57124019028511
 42
0.0
 10
787.70576959927291
 20
115.44164019028518
 42
0.0
 10
787.7489695992723
 20
115.33364019028501
 42
0.0
 10
787.82456959927242
 20
115.13924019028497
 42
0.0
 10
787.92176959927258
 20
114.94484019028494
 42
0.0
 10
788.02976959927264
 20
114.75044019028519
 42
0.0
 10
788.13776959927293
 20
114.57764019028518
 42
0.0
 10
788.2889695992726
 20
114.37244019028485
 42
0.0
 10
788.45096959927287
 20
114.18884019028512
 42
0.0
 10
788.6345695992726
 20
114.00524019028511
 42
0.0
 10
788.81816959927232
 20
113.82164019028508
 42
0.0
 10
784.36856959927275
 20
113.82164019028508
 42
0.0
 10
784.20656959927248
 20
114.00524019028511
 42
0.0
 10
784.05536959927247
 20
114.16724019028509
 42
0.0
 10
783.9257695992726
 20
114.36164019028512
 42
0.0
 10
783.80696959927263
 20
114.55604019028515
 42
0.0
 10
783.72056959927284
 20
114.75044019028519
 42
0.0
 10
783.63416959927247
 20
114.94484019028494
 42
0.0
 10
783.54776959927335
 20
115.15004019028498
 42
0.0
 10
783.49376959927247
 20
115.37684019028508
 42
0.0
 10
782.91056959927232
 20
115.13924019028497
 42
0.0
 10
782.32736959927263
 20
114.91244019028488
 42
0.0
 10
781.74416959927282
 20
114.70724019028512
 42
0.0
 10
781.18256959927271
 20
114.52364019028509
 42
0.0
 10
780.61016959927269
 20
114.3508401902851
 42
0.0
 10
780.03776959927268
 20
114.19964019028514
 42
0.0
 10
779.48696959927236
 20
114.07004019028493
 42
0.0
 10
778.9361695992726
 20
113.96204019028504
 42
0.0
 10
778.38536959927239
 20
113.86484019028487
 42
0.0
 10
777.83996959926696
 20
113.77222509594432
 42
0.0
 10
777.83996959926696
 20
115.38764019028453
 42
0.0
 10
778.11536959927219
 20
115.42004019028487
 42
0.0
 10
778.6337695992728
 20
115.51724019028502
 42
0.0
 10
779.14136959927305
 20
115.63604019028521
 42
0.0
 10
779.63816959927271
 20
115.75484019028512
 42
0.0
 10
780.09176959927231
 20
115.89524019028507
 42
0.0
 10
780.53456959927246
 20
116.04644019028504
 42
0.0
 10
780.92336959927286
 20
116.2084401902853
 42
0.0
 10
781.29056959927266
 20
116.39204019028503
 42
0.0
 10
781.64696959927267
 20
116.58644019028506
 42
0.0
 10
781.94936959927247
 20
116.79164019028512
 42
0.0
 10
782.21936959927234
 20
117.00764019028519
 42
0.0
 10
782.44616959927225
 20
117.23444019028499
 42
0.0
 10
782.62976959927278
 20
117.42884019028503
 42
0.0
 10
782.75936959927242
 20
117.64484019028509
 42
0.0
 10
782.87816959927318
 20
117.87164019028518
 42
0.0
 10
782.96456959927275
 20
118.13084019028503
 42
0.0
 10
783.05096959927289
 20
118.41164019028521
 42
0.0
 10
783.10496959927218
 20
118.71404019028513
 42
0.0
 10
783.12656959927267
 20
119.02724019028508
 42
0.0
 10
783.14816959927248
 20
119.37284019028507
 42
0.0
 10
783.14816959927248
 20
120.16124019028494
 42
0.0
 10
782.84576959927222
 20
120.09644019028512
 42
0.0
 10
782.53256959927262
 20
120.0316401902853
 42
0.0
 10
782.18696959927229
 20
119.97764019028521
 42
0.0
 10
781.84136959927298
 20
119.92364019028513
 42
0.0
 10
781.47416959927318
 20
119.86964019028504
 42
0.0
 10
781.07456959927231
 20
119.82644019028525
 42
0.0
 10
780.66416959927267
 20
119.77244019028517
 42
0.0
 10
780.23216959927265
 20
119.71844019028508
 42
0.0
 10
779.78936959927239
 20
119.66444019028528
 42
0.0
 10
779.33576959927223
 20
119.62124019028492
 42
0.0
 10
778.84976959927258
 20
119.56724019028512
 42
0.0
 10
778.35296959927234
 20
119.52404019028504
 42
0.0
 10
777.82376959927262
 20
119.48084019028497
 42
0.0
 10
777.29456959927222
 20
119.42684019028516
 42
0.0
 10
776.73296959927222
 20
119.38364019028509
 42
0.0
 10
776.16056959927266
 20
119.34044019028502
 42
0.0
 10
775.52336959927266
 20
119.30804019028497
 42
0.0
 10
774.94016959927285
 20
119.25404019028517
 42
0.0
 10
774.40016959927254
 20
119.20004019028508
 42
0.0
 10
773.90336959927288
 20
119.14604019028528
 42
0.0
 10
773.47136959927229
 20
119.09204019028491
 42
0.0
 10
773.0717695992729
 20
119.0380401902851
 42
0.0
 10
772.73696959927247
 20
118.98404019028501
 42
0.0
 10
772.43456959927278
 20
118.91924019028519
 42
0.0
 10
772.17536959927236
 20
118.85444019028509
 42
0.0
 10
771.91616959927308
 20
118.78964019028497
 42
0.0
 10
771.70016959927273
 20
118.71404019028513
 42
0.0
 10
771.47336959927236
 20
118.62764019028528
 42
0.0
 10
771.26816959927203
 20
118.54124019028514
 42
0.0
 10
771.08456959927264
 20
118.43324019028496
 42
0.0
 10
770.9117695992727
 20
118.33604019028509
 42
0.0
 10
770.74976959927244
 20
118.2280401902852
 42
0.0
 10
770.6093695992721
 20
118.10924019028499
 42
0.0
 10
770.49056959927282
 20
117.99044019028509
 42
0.0
 10
770.39336959927266
 20
117.86084019028516
 42
0.0
 10
770.2961695992725
 20
117.74204019028497
 42
0.0
 10
770.2313695992724
 20
117.61244019028504
 42
0.0
 10
770.18816959927256
 20
117.48284019028512
 42
0.0
 10
770.16656959927263
 20
117.34244019028488
 42
0.0
 10
770.15576959927284
 20
117.21284019028523
 42
0.0
 10
770.17736959927242
 20
117.00764019028519
 42
0.0
 10
770.2313695992724
 20
116.79164019028512
 42
0.0
 10
770.33936959927269
 20
116.6080401902851
 42
0.0
 10
770.49056959927282
 20
116.42444019028508
 42
0.0
 10
770.66336959927276
 20
116.25164019028509
 42
0.0
 10
770.89016959927267
 20
116.08964019028511
 42
0.0
 10
771.16016959927242
 20
115.92764019028512
 42
0.0
 10
771.45176959927289
 20
115.77644019028516
 42
0.0
 10
771.79736959927266
 20
115.64684019028495
 42
0.0
 10
772.17536959927236
 20
115.53884019028506
 42
0.0
 10
772.59656959927304
 20
115.44164019028518
 42
0.0
 10
773.05016959927286
 20
115.35524019028504
 42
0.0
 10
773.5361695992724
 20
115.29044019028493
 42
0.0
 10
774.06536959927223
 20
115.24724019028514
 42
0.0
 10
774.6377695992727
 20
115.22564019028482
 42
0.0
 10
775.242569599273
 20
115.20404019028507
 42
0.0
 10
775.84736959927261
 20
115.22564019028482
 42
0.0
 10
776.45216959927234
 20
115.24724019028514
 42
0.0
 10
777.01376959927245
 20
115.29044019028493
 42
0.0
 10
777.56456959927266
 20
115.35524019028504
 42
0.0
 10
777.73196959927077
 20
115.37493430793195
 42
0.0
 10
777.73196959927077
 20
113.75694207707724
 42
0.0
 10
777.24056959927248
 20
113.69204019028487
 42
0.0
 10
776.65736959927278
 20
113.63804019028507
 42
0.0
 10
776.05256959927283
 20
113.594840190285
 42
0.0
 10
775.45856959927278
 20
113.56244019028495
 42
0.0
 10
774.84296959927269
 20
113.54084019028491
 42
0.0
 10
774.21656959927259
 20
113.54084019028491
 42
0.0
 10
773.71976959927224
 20
113.54084019028491
 42
0.0
 10
773.21216959927187
 20
113.55164019028493
 42
0.0
 10
772.73696959927247
 20
113.57324019028496
 42
0.0
 10
772.26176959927261
 20
113.60564019028502
 42
0.0
 10
771.8081695992729
 20
113.63804019028507
 42
0.0
 10
771.37616959927277
 20
113.68124019028485
 42
0.0
 10
770.95496959927243
 20
113.73524019028494
 42
0.0
 10
770.54456959927199
 20
113.78924019028503
 42
0.0
 10
770.15576959927284
 20
113.86484019028487
 42
0.0
 10
769.76696959927278
 20
113.940440190285
 42
0.0
 10
769.41056959927243
 20
114.02684019028486
 42
0.0
 10
769.07576959927269
 20
114.10244019028498
 42
0.0
 10
768.74096959927272
 20
114.21044019028515
 42
0.0
 10
768.41696959927276
 20
114.31844019028505
 42
0.0
 10
768.11456959927227
 20
114.42644019028494
 42
0.0
 10
767.83376959927239
 20
114.55604019028515
 42
0.0
 10
767.5529695992725
 20
114.67484019028507
 42
0.0
 10
767.30456959927267
 20
114.81524019028501
 42
0.0
 10
767.07776959927287
 20
114.95564019028495
 42
0.0
 10
766.86176959927252
 20
115.10684019028491
 42
0.0
 10
766.65656959927219
 20
115.24724019028514
 42
0.0
 10
766.46216959927187
 20
115.39844019028511
 42
0.0
 10
766.31096959927277
 20
115.54964019028507
 42
0.0
 10
766.15976959927252
 20
115.70084019028504
 42
0.0
 10
766.03016959927231
 20
115.87364019028503
 42
0.0
 10
765.92216959927214
 20
116.04644019028504
 42
0.0
 10
765.82496959927221
 20
116.21924019028503
 42
0.0
 10
765.73856959927298
 20
116.39204019028503
 42
0.0
 10
765.6737695992723
 20
116.58644019028506
 42
0.0
 10
765.6305695992728
 20
116.75924019028507
 42
0.0
 10
765.6089695992722
 20
116.9536401902851
 42
0.0
 10
765.58736959927273
 20
117.15884019028515
 42
0.0
 10
765.6089695992722
 20
117.37484019028493
 42
0.0
 10
765.64136959927282
 20
117.60164019028502
 42
0.0
 10
765.7169695992726
 20
117.81764019028509
 42
0.0
 10
765.81416959927276
 20
118.04444019028489
 42
0.0
 10
765.93296959927216
 20
118.24964019028523
 42
0.0
 10
766.07336959927261
 20
118.44404019028526
 42
0.0
 10
766.24616959927232
 20
118.64924019028503
 42
0.0
 10
766.45136959927243
 20
118.83284019028504
 42
0.0
 10
766.66736959927277
 20
119.02724019028508
 42
0.0
 10
766.89416959927257
 20
119.2108401902851
 42
0.0
 10
767.14256959927297
 20
119.37284019028507
 42
0.0
 10
767.41256959927227
 20
119.53484019028505
 42
0.0
 10
767.70416959927275
 20
119.68604019028503
 42
0.0
 10
768.01736959927268
 20
119.82644019028525
 42
0.0
 10
768.30896959927236
 20
119.94524019028516
 42
0.0
 10
768.65456959927258
 20
120.06404019028507
 42
0.0
 10
769.01096959927315
 20
120.18284019028498
 42
0.0
 10
769.35656959927212
 20
120.29084019028517
 42
0.0
 10
769.71296959927236
 20
120.39884019028506
 42
0.0
 10
770.11256959927232
 20
120.47444019028518
 42
0.0
 10
770.49056959927282
 20
120.56084019028503
 42
0.0
 10
770.89016959927267
 20
120.63644019028516
 42
0.0
 10
771.28976959927263
 20
120.71204019028528
 42
0.0
 10
771.73256959927255
 20
120.7768401902851
 42
0.0
 10
772.06736959927287
 20
120.82004019028517
 42
0.0
 10
772.43456959927278
 20
120.85244019028522
 42
0.0
 10
772.84496959927242
 20
120.90644019028502
 42
0.0
 10
773.30936959927203
 20
120.93884019028508
 42
0.0
 10
773.80616959927272
 20
120.97124019028513
 42
0.0
 10
774.33536959927244
 20
121.01444019028493
 42
0.0
 10
774.89696959927267
 20
121.057640190285
 42
0.0
 10
775.52336959927266
 20
121.09004019028505
 42
0.0
 10
776.16056959927266
 20
121.13324019028512
 42
0.0
 10
776.77616959927252
 20
121.16564019028517
 42
0.0
 10
777.37016959927269
 20
121.21964019028498
 42
0.0
 10
777.9425695992727
 20
121.26284019028505
 42
0.0
 10
778.49336959927246
 20
121.2952401902851
 42
0.0
 10
779.02256959927229
 20
121.34924019028519
 42
0.0
 10
779.54096959927256
 20
121.39244019028497
 42
0.0
 10
780.01616959927276
 20
121.43564019028504
 42
0.0
 10
780.49136959927307
 20
121.46804019028509
 42
0.0
 10
780.92336959927286
 20
121.5220401902849
 42
0.0
 10
781.34456959927206
 20
121.57604019028527
 42
0.0
 10
781.74416959927282
 20
121.61924019028505
 42
0.0
 10
782.13296959927231
 20
121.67324019028514
 42
0.0
 10
782.48936959927255
 20
121.72724019028496
 42
0.0
 10
782.82416959927309
 20
121.78124019028505
 42
0.0
 10
783.14816959927248
 20
121.83524019028513
 42
0.0
 10
783.15896959927272
 20
121.94324019028502
 42
0.0
 10
783.15896959927272
 20
122.01884019028515
 42
0.0
 10
783.15896959927272
 20
122.1160401902853
 42
0.0
 10
783.16976959927229
 20
122.19164019028514
 42
0.0
 10
783.16976959927229
 20
122.25644019028525
 42
0.0
 10
783.16976959927229
 20
122.31044019028533
 42
0.0
 10
783.16976959927229
 20
122.35364019028512
 42
0.0
 10
783.16976959927229
 20
122.3968401902852
 42
0.0
 10
783.15896959927272
 20
122.69924019028512
 42
0.0
 10
783.09416959927296
 20
123.00164019028504
 42
0.0
 10
782.9969695992728
 20
123.26084019028519
 42
0.0
 10
782.85656959927258
 20
123.50924019028531
 42
0.0
 10
782.69456959927231
 20
123.71444019028507
 42
0.0
 10
782.48936959927255
 20
123.90884019028512
 42
0.0
 10
782.24096959927272
 20
124.08164019028511
 42
0.0
 10
781.96016959927283
 20
124.23284019028507
 42
0.0
 10
781.52816959927304
 20
124.40564019028507
 42
0.0
 10
781.0529695992725
 20
124.55684019028533
 42
0.0
 10
780.50216959927241
 20
124.67564019028524
 42
0.0
 10
779.9189695992726
 20
124.77284019028511
 42
0.0
 10
779.29256959927284
 20
124.84844019028523
 42
0.0
 10
778.60136959927274
 20
124.91324019028505
 42
0.0
 10
777.8777695992726
 20
124.9456401902851
 42
0.0
 10
777.08936959927246
 20
124.95644019028512
 42
0.0
 10
776.36576959927277
 20
124.9456401902851
 42
0.0
 10
775.68536959927235
 20
124.92404019028507
 42
0.0
 10
775.04816959927268
 20
124.880840190285
 42
0.0
 10
774.46496959927299
 20
124.81604019028518
 42
0.0
 10
773.93576959927202
 20
124.74044019028534
 42
0.0
 10
773.46056959927273
 20
124.6540401902852
 42
0.0
 10
773.01776959927281
 20
124.55684019028533
 42
0.0
 10
772.63976959927288
 20
124.4272401902851
 42
0.0
 10
772.28336959927265
 20
124.28684019028516
 42
0.0
 10
771.97016959927316
 20
124.10324019028515
 42
0.0
 10
771.66776959927267
 20
123.91964019028514
 42
0.0
 10
771.38696959927256
 20
123.69284019028504
 42
0.0
 10
771.13856959927307
 20
123.45524019028522
 42
0.0
 10
770.9117695992727
 20
123.17444019028505
 42
0.0
 10
770.69576959927235
 20
122.88284019028514
 42
0.0
 10
770.51216959927194
 20
122.55884019028518
 42
0.0
 10
766.34336959927259
 20
122.85044019028537
 42
0.0
 10
766.49456959927193
 20
123.16364019028532
 42
0.0
 10
766.66736959927277
 20
123.48764019028499
 42
0.0
 10
766.87256959927231
 20
123.76844019028516
 42
0.0
 10
767.08856959927289
 20
124.06004019028508
 42
0.0
 10
767.33696959927215
 20
124.31924019028493
 42
0.0
 10
767.60696959927259
 20
124.56764019028506
 42
0.0
 10
767.90936959927194
 20
124.79444019028514
 42
0.0
 10
768.20096959927241
 20
125.01044019028521
 42
0.0
 10
768.55736959927242
 20
125.20484019028524
 42
0.0
 10
768.93536959927224
 20
125.399240190285
 42
0.0
 10
769.35656959927212
 20
125.57204019028499
 42
0.0
 10
769.81016959927251
 20
125.73404019028497
 42
0.0
 10
770.2961695992725
 20
125.88524019028493
 42
0.0
 10
770.81456959927255
 20
126.03644019028519
 42
0.0
 10
771.38696959927256
 20
126.16604019028512
 42
0.0
 10
771.99176959927217
 20
126.27404019028529
 42
0.0
 10
772.60736959927283
 20
126.38204019028518
 42
0.0
 10
773.27696959927277
 20
126.46844019028532
 42
0.0
 10
773.94656959927261
 20
126.55484019028518
 42
0.0
 10
774.64856959927272
 20
126.619640190285
 42
0.0
 10
775.38296959927231
 20
126.66284019028508
 42
0.0
 10
776.12816959927306
 20
126.70604019028515
 42
0.0
 10
776.91656959927229
 20
126.71684019028517
 42
0.0
 10
777.70496959927232
 20
126.71684019028517
 42
0.0
 10
778.50416959927259
 20
126.71684019028517
 42
0.0
 10
779.23856959927321
 20
126.70604019028515
 42
0.0
 10
779.9621695992721
 20
126.6736401902851
 42
0.0
 10
780.64256959927275
 20
126.64124019028532
 42
0.0
 10
781.26896959927262
 20
126.57644019028521
 42
0.0
 10
781.86296959927267
 20
126.51164019028511
 42
0.0
 10
782.43536959927246
 20
126.43604019028527
 42
0.0
 10
782.95376959927273
 20
126.34964019028513
 42
0.0
 10
783.43976959927272
 20
126.24164019028524
 42
0.0
 10
783.89336959927255
 20
126.14444019028508
 42
0.0
 10
784.32536959927211
 20
126.02564019028517
 42
0.0
 10
784.71416959927274
 20
125.91764019028498
 42
0.0
 10
785.05976959927273
 20
125.78804019028506
 42
0.0
 10
785.38376959927291
 20
125.66924019028515
 42
0.0
 10
785.67536959927224
 20
125.52884019028521
 42
0.0
 10
785.93456959927266
 20
125.38844019028527
 42
0.0
 10
786.15056959927313
 20
125.23724019028502
 42
0.0
 10
786.36656959927268
 20
125.08604019028505
 42
0.0
 10
786.55016959927275
 20
124.91324019028505
 42
0.0
 10
786.73376959927293
 20
124.72964019028504
 42
0.0
 10
786.88496959927261
 20
124.55684019028533
 42
0.0
 10
787.02536959927215
 20
124.35164019028498
 42
0.0
 10
787.14416959927303
 20
124.14644019028493
 42
0.0
 10
787.25216959927252
 20
123.93044019028515
 42
0.0
 10
787.28456959927257
 20
123.85484019028532
 42
0.0
 10
787.30616959927249
 20
123.7900401902852
 42
0.0
 10
787.31696959927262
 20
123.69284019028504
 42
0.0
 10
787.34936959927268
 20
123.60644019028518
 42
0.0
 10
787.36016959927281
 20
123.50924019028531
 42
0.0
 10
787.39256959927286
 20
123.40124019028514
 42
0.0
 10
787.40336959927265
 20
123.29324019028496
 42
0.0
 10
787.41416959927278
 20
123.16364019028532
 42
0.0
 10
787.42496959927291
 20
123.0340401902851
 42
0.0
 10
787.44656959927283
 20
122.91524019028519
 42
0.0
 10
787.45736959927297
 20
122.76404019028523
 42
0.0
 10
787.45736959927297
 20
122.61284019028498
 42
0.0
 10
787.46816959927241
 20
122.47244019028504
 42
0.0
 10
787.46816959927241
 20
122.31044019028533
 42
0.0
 10
787.46816959927241
 20
122.12684019028504
 42
0.0
 10
787.46816959927241
 20
121.96484019028506
 42
0.0
 10
787.46816959927241
 20
119.11364019028522
 42
0.0
 10
787.46816959927241
 20
118.7572401902852
 42
0.0
 10
787.46816959927241
 20
118.39004019028489
 42
0.0
 10
787.47896959927255
 20
118.07684019028494
 42
0.0
 10
787.47896959927255
 20
117.75284019028527
 42
0.0
 10
787.50056959927281
 20
117.46124019028508
 42
0.0
 10
787.5113695992726
 20
117.19124019028492
 42
0.0
 10
787.52216959927227
 20
116.92124019028505
 42
0.0
 10
787.53296959927252
 20
116.68364019028493
 42
0.0
 10
787.55456959927312
 20
116.44604019028512
 42
0.0
 10
787.56536959927257
 20
116.24084019028535
 42
0.0
 10
787.59776959927297
 20
116.04644019028504
 42
0.0
 97
        0
 75
     0
 76
     1
 98
        1
 10
0.0
 20
0.0
  0
HATCH
  5
9A
100
AcDbEntity
  8
LAY-1
  6
CONTINUOUS
 62
     7
100
AcDbHatch
 10
0.0
 20
0.0
 30
0.0
210
0.0
220
0.0
230
1.0
  2
SOLID
 70
     1
 71
     1
 91
        1
 92
        2
 72
     1
 73
     1
 93
      260
 10
731.70776959927207
 20
117.04004019028496
 42
0.0
 10
731.56736959927184
 20
116.84564019028493
 42
0.0
 10
731.3945695992719
 20
116.66204019028518
 42
0.0
 10
731.22176959927185
 20
116.47844019028517
 42
0.0
 10
730.83296959927213
 20
116.1436401902852
 42
0.0
 10
730.40096959927257
 20
115.81964019028523
 42
0.0
 10
729.93656959927205
 20
115.51724019028502
 42
0.0
 10
729.42896959927157
 20
115.23644019028512
 42
0.0
 10
728.87816959927227
 20
114.97724019028499
 42
0.0
 10
728.27336959927186
 20
114.72884019028487
 42
0.0
 10
727.63616959927231
 20
114.52364019028509
 42
0.0
 10
726.955769599272
 20
114.30764019028503
 42
0.0
 10
726.26456959927202
 20
114.12404019028502
 42
0.0
 10
725.54096959927199
 20
113.97284019028505
 42
0.0
 10
724.80656959927217
 20
113.84324019028512
 42
0.0
 10
724.03976959927206
 20
113.73524019028494
 42
0.0
 10
723.27296959927162
 20
113.63804019028507
 42
0.0
 10
722.49536959927207
 20
113.58404019028498
 42
0.0
 10
721.69616959927191
 20
113.55164019028493
 42
0.0
 10
720.87536959927172
 20
113.54084019028491
 42
0.0
 10
720.78356959926589
 20
113.54084019028491
 42
0.0
 10
720.78356959926589
 20
115.30124019028496
 42
0.0
 10
720.87536959927172
 20
115.30124019028496
 42
0.0
 10
721.26416959927178
 20
115.30124019028496
 42
0.0
 10
721.66376959927186
 20
115.31204019028497
 42
0.0
 10
722.03096959927223
 20
115.33364019028501
 42
0.0
 10
722.39816959927191
 20
115.36604019028506
 42
0.0
 10
722.75456959927249
 20
115.42004019028487
 42
0.0
 10
723.12176959927172
 20
115.47404019028524
 42
0.0
 10
723.45656959927192
 20
115.53884019028506
 42
0.0
 10
723.79136959927257
 20
115.60364019028516
 42
0.0
 10
724.12616959927198
 20
115.679240190285
 42
0.0
 10
724.43936959927191
 20
115.76564019028486
 42
0.0
 10
724.75256959927185
 20
115.87364019028503
 42
0.0
 10
725.054969599272
 20
115.9816401902852
 42
0.0
 10
725.3465695992719
 20
116.10044019028513
 42
0.0
 10
725.62736959927213
 20
116.21924019028503
 42
0.0
 10
725.89736959927257
 20
116.35964019028526
 42
0.0
 10
726.16736959927186
 20
116.51084019028494
 42
0.0
 10
726.42656959927194
 20
116.6728401902852
 42
0.0
 10
726.67496959927212
 20
116.82404019028517
 42
0.0
 10
726.90176959927248
 20
117.00764019028519
 42
0.0
 10
727.096169599272
 20
117.20204019028493
 42
0.0
 10
727.27976959927173
 20
117.38564019028495
 42
0.0
 10
727.46336959927226
 20
117.60164019028502
 42
0.0
 10
727.61456959927193
 20
117.80684019028507
 42
0.0
 10
727.75496959927216
 20
118.04444019028489
 42
0.0
 10
727.8845695992718
 20
118.27124019028498
 42
0.0
 10
727.99256959927197
 20
118.5196401902851
 42
0.0
 10
728.0681695992721
 20
118.77884019028495
 42
0.0
 10
728.15456959927224
 20
119.0380401902851
 42
0.0
 10
728.20856959927175
 20
119.32964019028501
 42
0.0
 10
728.25176959927239
 20
119.61044019028519
 42
0.0
 10
728.27336959927186
 20
119.89124019028507
 42
0.0
 10
728.29496959927246
 20
120.20444019028501
 42
0.0
 10
728.27336959927186
 20
120.49604019028521
 42
0.0
 10
728.25176959927239
 20
120.7768401902851
 42
0.0
 10
728.20856959927175
 20
121.03604019028496
 42
0.0
 10
728.15456959927224
 20
121.30604019028512
 42
0.0
 10
728.0681695992721
 20
121.55444019028495
 42
0.0
 10
727.99256959927197
 20
121.80284019028537
 42
0.0
 10
727.8845695992718
 20
122.02964019028516
 42
0.0
 10
727.75496959927216
 20
122.25644019028525
 42
0.0
 10
727.61456959927193
 20
122.48324019028506
 42
0.0
 10
727.46336959927226
 20
122.67764019028509
 42
0.0
 10
727.27976959927173
 20
122.88284019028514
 42
0.0
 10
727.096169599272
 20
123.06644019028515
 42
0.0
 10
726.8909695992719
 20
123.25004019028518
 42
0.0
 10
726.65336959927208
 20
123.43364019028519
 42
0.0
 10
726.4157695992717
 20
123.58484019028515
 42
0.0
 10
726.15656959927207
 20
123.74684019028513
 42
0.0
 10
725.89736959927257
 20
123.8980401902851
 42
0.0
 10
725.60576959927209
 20
124.03844019028504
 42
0.0
 10
725.33576959927166
 20
124.15724019028524
 42
0.0
 10
725.02256959927195
 20
124.27604019028514
 42
0.0
 10
724.74176959927206
 20
124.38404019028503
 42
0.0
 10
724.41776959927245
 20
124.48124019028519
 42
0.0
 10
724.09376959927192
 20
124.57844019028508
 42
0.0
 10
723.78056959927198
 20
124.6540401902852
 42
0.0
 10
723.4457695992719
 20
124.71884019028502
 42
0.0
 10
723.10016959927191
 20
124.78364019028513
 42
0.0
 10
722.74376959927167
 20
124.83764019028521
 42
0.0
 10
722.38736959927189
 20
124.880840190285
 42
0.0
 10
722.03096959927223
 20
124.91324019028505
 42
0.0
 10
721.65296959927184
 20
124.93484019028537
 42
0.0
 10
721.26416959927178
 20
124.9456401902851
 42
0.0
 10
720.87536959927172
 20
124.95644019028512
 42
0.0
 10
720.47576959927164
 20
124.95644019028512
 42
0.0
 10
720.09776959927217
 20
124.93484019028537
 42
0.0
 10
719.70896959927211
 20
124.91324019028505
 42
0.0
 10
719.3525695992721
 20
124.880840190285
 42
0.0
 10
718.98536959927208
 20
124.83764019028521
 42
0.0
 10
718.62896959927207
 20
124.78364019028513
 42
0.0
 10
718.28336959927231
 20
124.72964019028504
 42
0.0
 10
717.94856959927199
 20
124.6540401902852
 42
0.0
 10
717.61376959927202
 20
124.57844019028508
 42
0.0
 10
717.28976959927206
 20
124.49204019028521
 42
0.0
 10
716.98736959927214
 20
124.39484019028534
 42
0.0
 10
716.68496959927199
 20
124.27604019028514
 42
0.0
 10
716.39336959927209
 20
124.15724019028524
 42
0.0
 10
716.10176959927242
 20
124.03844019028504
 42
0.0
 10
715.8209695992723
 20
123.8980401902851
 42
0.0
 10
715.55096959927209
 20
123.74684019028513
 42
0.0
 10
715.30256959927203
 20
123.59564019028517
 42
0.0
 10
715.0649695992721
 20
123.43364019028519
 42
0.0
 10
714.83816959927174
 20
123.26084019028519
 42
0.0
 10
714.64376959927199
 20
123.06644019028515
 42
0.0
 10
714.43856959927257
 20
122.88284019028514
 42
0.0
 10
714.27656959927231
 20
122.67764019028509
 42
0.0
 10
714.11456959927204
 20
122.47244019028504
 42
0.0
 10
713.97416959927182
 20
122.24564019028523
 42
0.0
 10
713.84456959927161
 20
122.01884019028515
 42
0.0
 10
713.74736959927202
 20
121.78124019028505
 42
0.0
 10
713.65016959927209
 20
121.5220401902849
 42
0.0
 10
713.58536959927176
 20
121.26284019028505
 42
0.0
 10
713.53136959927167
 20
120.99284019028518
 42
0.0
 10
713.47736959927215
 20
120.72284019028501
 42
0.0
 10
713.45576959927212
 20
120.42044019028509
 42
0.0
 10
713.4449695992721
 20
120.12884019028489
 42
0.0
 10
713.45576959927212
 20
119.83724019028527
 42
0.0
 10
713.47736959927215
 20
119.54564019028507
 42
0.0
 10
713.53136959927167
 20
119.27564019028492
 42
0.0
 10
713.58536959927176
 20
118.99484019028503
 42
0.0
 10
713.65016959927209
 20
118.73564019028517
 42
0.0
 10
713.74736959927202
 20
118.48724019028505
 42
0.0
 10
713.84456959927161
 20
118.24964019028523
 42
0.0
 10
713.97416959927182
 20
118.01204019028512
 42
0.0
 10
714.11456959927204
 20
117.78524019028504
 42
0.0
 10
714.27656959927231
 20
117.58004019028499
 42
0.0
 10
714.43856959927257
 20
117.37484019028493
 42
0.0
 10
714.64376959927199
 20
117.19124019028492
 42
0.0
 10
714.83816959927174
 20
116.99684019028489
 42
0.0
 10
715.0649695992721
 20
116.82404019028517
 42
0.0
 10
715.30256959927203
 20
116.66204019028518
 42
0.0
 10
715.55096959927209
 20
116.51084019028494
 42
0.0
 10
715.8209695992723
 20
116.35964019028526
 42
0.0
 10
716.10176959927242
 20
116.21924019028503
 42
0.0
 10
716.39336959927209
 20
116.10044019028513
 42
0.0
 10
716.68496959927199
 20
115.9816401902852
 42
0.0
 10
716.98736959927214
 20
115.87364019028503
 42
0.0
 10
717.28976959927206
 20
115.76564019028486
 42
0.0
 10
717.61376959927202
 20
115.66844019028527
 42
0.0
 10
717.94856959927199
 20
115.60364019028516
 42
0.0
 10
718.28336959927231
 20
115.53884019028506
 42
0.0
 10
718.62896959927207
 20
115.46324019028494
 42
0.0
 10
718.98536959927208
 20
115.42004019028487
 42
0.0
 10
719.3525695992721
 20
115.36604019028506
 42
0.0
 10
719.70896959927211
 20
115.33364019028501
 42
0.0
 10
720.09776959927217
 20
115.31204019028497
 42
0.0
 10
720.47576959927164
 20
115.30124019028496
 42
0.0
 10
720.67556959926628
 20
115.30124019028496
 42
0.0
 10
720.67556959926628
 20
113.54084019028491
 42
0.0
 10
720.21656959927179
 20
113.54084019028491
 42
0.0
 10
719.57936959927247
 20
113.56244019028495
 42
0.0
 10
718.96376959927204
 20
113.594840190285
 42
0.0
 10
718.3589695992722
 20
113.63804019028507
 42
0.0
 10
717.77576959927205
 20
113.70284019028517
 42
0.0
 10
717.18176959927189
 20
113.77844019028501
 42
0.0
 10
716.63096959927213
 20
113.86484019028487
 42
0.0
 10
716.08016959927181
 20
113.97284019028505
 42
0.0
 10
715.57256959927156
 20
114.07004019028493
 42
0.0
 10
715.05416959927186
 20
114.19964019028514
 42
0.0
 10
714.55736959927185
 20
114.3400401902848
 42
0.0
 10
714.07136959927197
 20
114.50204019028506
 42
0.0
 10
713.61776959927204
 20
114.65324019028503
 42
0.0
 10
713.17496959927189
 20
114.83684019028505
 42
0.0
 10
712.72136959927207
 20
115.04204019028509
 42
0.0
 10
712.31096959927186
 20
115.23644019028512
 42
0.0
 10
711.92216959927123
 20
115.46324019028494
 42
0.0
 10
711.55496959927177
 20
115.679240190285
 42
0.0
 10
711.19856959927176
 20
115.92764019028512
 42
0.0
 10
710.88536959927183
 20
116.17604019028525
 42
0.0
 10
710.60456959927194
 20
116.44604019028512
 42
0.0
 10
710.32376959927205
 20
116.71604019028499
 42
0.0
 10
710.08616959927224
 20
117.00764019028519
 42
0.0
 10
709.87016959927223
 20
117.31004019028482
 42
0.0
 10
709.67576959927192
 20
117.62324019028506
 42
0.0
 10
709.51376959927188
 20
117.94724019028502
 42
0.0
 10
709.37336959927165
 20
118.282040190285
 42
0.0
 10
709.25456959927203
 20
118.62764019028528
 42
0.0
 10
709.15736959927187
 20
118.98404019028501
 42
0.0
 10
709.10336959927179
 20
119.35124019028504
 42
0.0
 10
709.06016959927172
 20
119.74004019028511
 42
0.0
 10
709.04936959927193
 20
120.12884019028489
 42
0.0
 10
709.06016959927172
 20
120.56084019028503
 42
0.0
 10
709.10336959927179
 20
120.97124019028513
 42
0.0
 10
709.18976959927193
 20
121.39244019028497
 42
0.0
 10
709.2977695992721
 20
121.77044019028531
 42
0.0
 10
709.42736959927197
 20
122.14844019028507
 42
0.0
 10
709.60016959927202
 20
122.50484019028509
 42
0.0
 10
709.79456959927177
 20
122.85044019028537
 42
0.0
 10
710.03216959927215
 20
123.17444019028505
 42
0.0
 10
710.291369599272
 20
123.50924019028531
 42
0.0
 10
710.57216959927132
 20
123.80084019028493
 42
0.0
 10
710.88536959927183
 20
124.08164019028511
 42
0.0
 10
711.24176959927183
 20
124.36244019028528
 42
0.0
 10
711.63056959927133
 20
124.62164019028515
 42
0.0
 10
712.03016959927197
 20
124.87004019028527
 42
0.0
 10
712.48376959927191
 20
125.10764019028508
 42
0.0
 10
712.93736959927185
 20
125.32364019028516
 42
0.0
 10
713.34776959927217
 20
125.49644019028516
 42
0.0
 10
713.76896959927171
 20
125.65844019028513
 42
0.0
 10
714.22256959927165
 20
125.79884019028508
 42
0.0
 10
714.6653695992718
 20
125.9392401902853
 42
0.0
 10
715.11896959927196
 20
126.06884019028524
 42
0.0
 10
715.58336959927215
 20
126.17684019028513
 42
0.0
 10
716.05856959927212
 20
126.27404019028529
 42
0.0
 10
716.54456959927177
 20
126.37124019028516
 42
0.0
 10
717.05216959927168
 20
126.45764019028502
 42
0.0
 10
717.57056959927195
 20
126.52244019028512
 42
0.0
 10
718.08896959927199
 20
126.58724019028523
 42
0.0
 10
718.62896959927207
 20
126.64124019028532
 42
0.0
 10
719.1689695992718
 20
126.6736401902851
 42
0.0
 10
719.73056959927158
 20
126.70604019028515
 42
0.0
 10
720.30296959927193
 20
126.71684019028517
 42
0.0
 10
720.87536959927172
 20
126.71684019028517
 42
0.0
 10
721.52336959927197
 20
126.71684019028517
 42
0.0
 10
722.14976959927185
 20
126.70604019028515
 42
0.0
 10
722.75456959927249
 20
126.6736401902851
 42
0.0
 10
723.34856959927208
 20
126.619640190285
 42
0.0
 10
723.93176959927189
 20
126.56564019028519
 42
0.0
 10
724.50416959927202
 20
126.49004019028507
 42
0.0
 10
725.06576959927179
 20
126.40364019028522
 42
0.0
 10
725.59496959927208
 20
126.29564019028504
 42
0.0
 10
726.12416959927202
 20
126.18764019028515
 42
0.0
 10
726.63176959927205
 20
126.06884019028524
 42
0.0
 10
727.12856959927205
 20
125.91764019028498
 42
0.0
 10
727.61456959927193
 20
125.75564019028501
 42
0.0
 10
728.0681695992721
 20
125.60444019028505
 42
0.0
 10
728.52176959927169
 20
125.42084019028503
 42
0.0
 10
728.95376959927239
 20
125.22644019028499
 42
0.0
 10
729.37496959927228
 20
125.02124019028523
 42
0.0
 10
729.77456959927179
 20
124.79444019028514
 42
0.0
 10
730.14176959927215
 20
124.57844019028508
 42
0.0
 10
730.50896959927218
 20
124.34084019028525
 42
0.0
 10
730.82216959927177
 20
124.08164019028511
 42
0.0
 10
731.11376959927202
 20
123.82244019028526
 42
0.0
 10
731.3945695992719
 20
123.5524401902851
 42
0.0
 10
731.63216959927195
 20
123.28244019028523
 42
0.0
 10
731.85896959927209
 20
122.99084019028531
 42
0.0
 10
732.04256959927238
 20
122.68844019028511
 42
0.0
 10
732.21536959927209
 20
122.38604019028517
 42
0.0
 10
732.35576959927232
 20
122.06204019028522
 42
0.0
 10
732.46376959927193
 20
121.72724019028496
 42
0.0
 10
732.56096959927208
 20
121.39244019028497
 42
0.0
 10
732.62576959927196
 20
121.03604019028496
 42
0.0
 10
732.66896959927226
 20
120.67964019028523
 42
0.0
 10
732.67976959927171
 20
120.3124401902852
 42
0.0
 10
732.66896959927226
 20
120.01004019028498
 42
0.0
 10
732.65816959927201
 20
119.71844019028508
 42
0.0
 10
732.62576959927196
 20
119.42684019028516
 42
0.0
 10
732.59336959927214
 20
119.16764019028503
 42
0.0
 10
732.53936959927205
 20
118.88684019028514
 42
0.0
 10
732.46376959927193
 20
118.62764019028528
 42
0.0
 10
732.39896959927182
 20
118.37924019028516
 42
0.0
 10
732.3017695992728
 20
118.13084019028503
 42
0.0
 10
732.21536959927209
 20
117.89324019028521
 42
0.0
 10
732.10736959927249
 20
117.67724019028515
 42
0.0
 10
731.98856959927252
 20
117.45044019028506
 42
0.0
 10
731.85896959927209
 20
117.23444019028499
 42
0.0
 97
        0
 75
     0
 76
     1
 98
        1
 10
0.0
 20
0.0
  0
LINE
  5
9B
100
AcDbEntity
  8
LAY-1
  6
CONTINUOUS
 62
     7
100
AcDbLine
 10
777.83997
 20
115.38764
 30
0.0
 11
777.83997
 21
113.772225
 31
0.0
  0
LINE
  5
9C
100
AcDbEntity
  8
LAY-1
  6
CONTINUOUS
 62
     7
100
AcDbLine
 10
777.73197
 20
115.374934
 30
0.0
 11
777.73197
 21
113.756942
 31
0.0
  0
LINE
  5
9D
100
AcDbEntity
  8
LAY-1
  6
CONTINUOUS
 62
     7
100
AcDbLine
 10
720.67557
 20
115.30124
 30
0.0
 11
720.67557
 21
113.54084
 31
0.0
  0
LINE
  5
9E
100
AcDbEntity
  8
LAY-1
  6
CONTINUOUS
 62
     7
100
AcDbLine
 10
720.78357
 20
115.30124
 30
0.0
 11
720.78357
 21
113.54084
 31
0.0
  0
HATCH
  5
9F
100
AcDbEntity
  8
LAY-1
  6
CONTINUOUS
 62
     7
100
AcDbHatch
 10
0.0
 20
0.0
 30
0.0
210
0.0
220
0.0
230
1.0
  2
SOLID
 70
     1
 71
     1
 91
        1
 92
        2
 72
     1
 73
     1
 93
        4
 10
762.87656959927278
 20
113.82164019028508
 42
0.0
 10
758.58896959927233
 20
113.82164019028508
 42
0.0
 10
758.58896959927233
 20
126.43604019028527
 42
0.0
 10
762.87656959927278
 20
126.43604019028527
 42
0.0
 97
        0
 75
     0
 76
     1
 98
        1
 10
0.0
 20
0.0
  0
HATCH
  5
A0
100
AcDbEntity
  8
LAY-1
  6
CONTINUOUS
 62
     7
100
AcDbHatch
 10
0.0
 20
0.0
 30
0.0
210
0.0
220
0.0
230
1.0
  2
SOLID
 70
     1
 71
     1
 91
        1
 92
        2
 72
     1
 73
     1
 93
       32
 10
760.34936959927268
 20
130.02164019028518
 42
0.0
 10
758.71856959927254
 20
129.27644019028509
 42
0.0
 10
757.16336959927253
 20
128.68244019028526
 42
0.0
 10
755.74856959927251
 20
128.27204019028514
 42
0.0
 10
754.49576959927219
 20
128.05604019028507
 42
0.0
 10
753.49136959927284
 20
128.04524019028506
 42
0.0
 10
752.76776959927281
 20
128.23964019028509
 42
0.0
 10
752.31416959927265
 20
128.62844019028518
 42
0.0
 10
752.20616959927213
 20
129.20084019028525
 42
0.0
 10
752.40056959927244
 20
129.93524019028504
 42
0.0
 10
752.90816959927247
 20
130.81004019028532
 42
0.0
 10
753.72896959927209
 20
131.7712401902852
 42
0.0
 10
754.79816959927211
 20
132.79724019028518
 42
0.0
 10
756.08336959927249
 20
133.85564019028519
 42
0.0
 10
757.54136959927291
 20
134.88164019028517
 42
0.0
 10
759.11816959927239
 20
135.85364019028506
 42
0.0
 10
760.75976959927277
 20
136.73924019028507
 42
0.0
 10
762.37976959927255
 20
137.49524019028519
 42
0.0
 10
763.93496959927256
 20
138.08924019028501
 42
0.0
 10
765.37136959927238
 20
138.49964019028542
 42
0.0
 10
766.60256959927267
 20
138.7156401902852
 42
0.0
 10
767.60696959927259
 20
138.72644019028522
 42
0.0
 10
768.35216959927266
 20
138.53204019028547
 42
0.0
 10
768.78416959927279
 20
138.14324019028538
 42
0.0
 10
768.913769599273
 20
137.57084019028531
 42
0.0
 10
768.70856959927266
 20
136.82564019028521
 42
0.0
 10
768.19016959927274
 20
135.96164019028524
 42
0.0
 10
767.39096959927281
 20
135.00044019028508
 42
0.0
 10
766.32176959927278
 20
133.96364019028508
 42
0.0
 10
765.02576959927262
 20
132.91604019028509
 42
0.0
 10
763.56776959927288
 20
131.87924019028537
 42
0.0
 10
761.98016959927247
 20
130.90724019028519
 42
0.0
 97
        0
 75
     0
 76
     1
 98
        1
 10
0.0
 20
0.0
  0
HATCH
  5
A1
100
AcDbEntity
  8
LAY-1
  6
CONTINUOUS
 62
     7
100
AcDbHatch
 10
0.0
 20
0.0
 30
0.0
210
0.0
220
0.0
230
1.0
  2
SOLID
 70
     1
 71
     1
 91
        1
 92
        2
 72
     1
 73
     1
 93
      120
 10
735.39056959927223
 20
126.43604019028527
 42
0.0
 10
739.24616959927198
 20
126.43604019028527
 42
0.0
 10
739.24616959927198
 20
124.64324019028518
 42
0.0
 10
739.5917695992722
 20
124.90244019028532
 42
0.0
 10
739.96976959927167
 20
125.14004019028513
 42
0.0
 10
740.36936959927232
 20
125.35604019028521
 42
0.0
 10
740.77976959927219
 20
125.56124019028526
 42
0.0
 10
741.21176959927209
 20
125.74484019028499
 42
0.0
 10
741.67616959927284
 20
125.90684019028525
 42
0.0
 10
742.15136959927213
 20
126.06884019028524
 42
0.0
 10
742.63736959927269
 20
126.19844019028517
 42
0.0
 10
743.14496959927237
 20
126.32804019028509
 42
0.0
 10
743.67416959927266
 20
126.43604019028527
 42
0.0
 10
744.2357695992722
 20
126.52244019028512
 42
0.0
 10
744.80816959927222
 20
126.59804019028525
 42
0.0
 10
745.38056959927201
 20
126.65204019028506
 42
0.0
 10
745.99616959927187
 20
126.69524019028513
 42
0.0
 10
746.61176959927241
 20
126.71684019028517
 42
0.0
 10
747.27056959927256
 20
126.71684019028517
 42
0.0
 10
747.82136959927232
 20
126.71684019028517
 42
0.0
 10
748.38296959927186
 20
126.70604019028515
 42
0.0
 10
748.92296959927239
 20
126.6736401902851
 42
0.0
 10
749.46296959927247
 20
126.619640190285
 42
0.0
 10
749.98136959927194
 20
126.56564019028519
 42
0.0
 10
750.47816959927275
 20
126.49004019028507
 42
0.0
 10
750.97496959927264
 20
126.41444019028523
 42
0.0
 10
751.46096959927263
 20
126.30644019028506
 42
0.0
 10
751.9253695992719
 20
126.19844019028517
 42
0.0
 10
752.3465695992727
 20
126.1012401902853
 42
0.0
 10
752.76776959927281
 20
125.97164019028509
 42
0.0
 10
753.13496959927227
 20
125.84204019028515
 42
0.0
 10
753.45896959927222
 20
125.7016401902852
 42
0.0
 10
753.78296959927218
 20
125.56124019028526
 42
0.0
 10
754.06376959927263
 20
125.41004019028502
 42
0.0
 10
754.3121695992719
 20
125.23724019028502
 42
0.0
 10
754.54976959927228
 20
125.07524019028503
 42
0.0
 10
754.75496959927204
 20
124.8916401902853
 42
0.0
 10
754.94936959927236
 20
124.70804019028529
 42
0.0
 10
755.12216959927207
 20
124.51364019028524
 42
0.0
 10
755.28416959927233
 20
124.3084401902852
 42
0.0
 10
755.42456959927233
 20
124.10324019028515
 42
0.0
 10
755.54336959927218
 20
123.88724019028508
 42
0.0
 10
755.65136959927236
 20
123.66044019028527
 42
0.0
 10
755.67296959927239
 20
123.57404019028513
 42
0.0
 10
755.70536959927222
 20
123.50924019028531
 42
0.0
 10
755.72696959927248
 20
123.41204019028515
 42
0.0
 10
755.74856959927251
 20
123.30404019028526
 42
0.0
 10
755.77016959927255
 20
123.19604019028537
 42
0.0
 10
755.78096959927257
 20
123.08804019028518
 42
0.0
 10
755.81336959927205
 20
122.96924019028528
 42
0.0
 10
755.82416959927264
 20
122.85044019028537
 42
0.0
 10
755.83496959927243
 20
122.71004019028514
 42
0.0
 10
755.85656959927212
 20
122.5696401902852
 42
0.0
 10
755.86736959927248
 20
122.42924019028526
 42
0.0
 10
755.86736959927248
 20
122.26724019028526
 42
0.0
 10
755.87816959927272
 20
122.105240190285
 42
0.0
 10
755.87816959927272
 20
121.94324019028502
 42
0.0
 10
755.87816959927272
 20
121.75964019028501
 42
0.0
 10
755.87816959927272
 20
121.57604019028527
 42
0.0
 10
755.87816959927272
 20
113.82164019028508
 42
0.0
 10
751.61216959927197
 20
113.82164019028508
 42
0.0
 10
751.61216959927197
 20
121.48964019028513
 42
0.0
 10
751.61216959927197
 20
121.8136401902851
 42
0.0
 10
751.57976959927225
 20
122.1160401902853
 42
0.0
 10
751.53656959927218
 20
122.38604019028517
 42
0.0
 10
751.4825695992721
 20
122.63444019028502
 42
0.0
 10
751.41776959927256
 20
122.88284019028514
 42
0.0
 10
751.3205695992724
 20
123.08804019028518
 42
0.0
 10
751.23416959927226
 20
123.28244019028523
 42
0.0
 10
751.1153695992723
 20
123.45524019028522
 42
0.0
 10
750.97496959927264
 20
123.60644019028518
 42
0.0
 10
750.80216959927236
 20
123.75764019028514
 42
0.0
 10
750.62936959927265
 20
123.8980401902851
 42
0.0
 10
750.42416959927266
 20
124.03844019028504
 42
0.0
 10
750.18656959927227
 20
124.15724019028524
 42
0.0
 10
749.93816959927244
 20
124.27604019028514
 42
0.0
 10
749.63576959927218
 20
124.38404019028503
 42
0.0
 10
749.3333695992726
 20
124.48124019028519
 42
0.0
 10
749.02016959927255
 20
124.57844019028508
 42
0.0
 10
748.67456959927233
 20
124.6540401902852
 42
0.0
 10
748.328969599272
 20
124.71884019028502
 42
0.0
 10
747.96176959927288
 20
124.77284019028511
 42
0.0
 10
747.5837695992725
 20
124.81604019028518
 42
0.0
 10
747.1841695992722
 20
124.84844019028523
 42
0.0
 10
746.7737695992721
 20
124.87004019028527
 42
0.0
 10
746.37416959927248
 20
124.87004019028527
 42
0.0
 10
746.01776959927281
 20
124.87004019028527
 42
0.0
 10
745.69376959927251
 20
124.85924019028525
 42
0.0
 10
745.35896959927197
 20
124.83764019028521
 42
0.0
 10
745.03496959927259
 20
124.81604019028518
 42
0.0
 10
744.72176959927208
 20
124.78364019028513
 42
0.0
 10
744.40856959927271
 20
124.74044019028534
 42
0.0
 10
744.11696959927224
 20
124.70804019028529
 42
0.0
 10
743.81456959927232
 20
124.6540401902852
 42
0.0
 10
743.52296959927241
 20
124.60004019028511
 42
0.0
 10
743.24216959927196
 20
124.53524019028501
 42
0.0
 10
742.95056959927263
 20
124.45964019028516
 42
0.0
 10
742.69136959927278
 20
124.38404019028503
 42
0.0
 10
742.41056959927232
 20
124.29764019028518
 42
0.0
 10
742.16216959927192
 20
124.21124019028504
 42
0.0
 10
741.89216959927205
 20
124.10324019028515
 42
0.0
 10
741.64376959927279
 20
124.00604019028499
 42
0.0
 10
741.4061695992724
 20
123.8980401902851
 42
0.0
 10
741.17936959927283
 20
123.76844019028516
 42
0.0
 10
740.98496959927252
 20
123.6172401902852
 42
0.0
 10
740.77976959927219
 20
123.47684019028526
 42
0.0
 10
740.61776959927249
 20
123.30404019028526
 42
0.0
 10
740.43416959927242
 20
123.13124019028527
 42
0.0
 10
740.2937695992722
 20
122.95844019028526
 42
0.0
 10
740.15336959927231
 20
122.75324019028521
 42
0.0
 10
740.04536959927214
 20
122.53724019028515
 42
0.0
 10
739.94816959927198
 20
122.31044019028533
 42
0.0
 10
739.85096959927239
 20
122.07284019028495
 42
0.0
 10
739.78616959927228
 20
121.83524019028513
 42
0.0
 10
739.73216959927277
 20
121.56524019028497
 42
0.0
 10
739.68896959927213
 20
121.2952401902851
 42
0.0
 10
739.66736959927266
 20
121.0036401902852
 42
0.0
 10
739.66736959927266
 20
120.71204019028528
 42
0.0
 10
739.66736959927266
 20
113.82164019028508
 42
0.0
 10
735.39056959927223
 20
113.82164019028508
 42
0.0
 97
        0
 75
     0
 76
     1
 98
        1
 10
0.0
 20
0.0
  0
HATCH
  5
A2
100
AcDbEntity
  8
LAY-1
  6
CONTINUOUS
 62
     7
100
AcDbHatch
 10
0.0
 20
0.0
 30
0.0
210
0.0
220
0.0
230
1.0
  2
SOLID
 70
     1
 71
     1
 91
        1
 92
        2
 72
     1
 73
     1
 93
      298
 10
701.95376959927171
 20
117.10484019028506
 42
0.0
 10
701.96456959927207
 20
117.29924019028509
 42
0.0
 10
701.95376959927171
 20
117.48284019028512
 42
0.0
 10
701.89976959927196
 20
117.65564019028511
 42
0.0
 10
701.79176959927179
 20
117.80684019028507
 42
0.0
 10
701.65136959927156
 20
117.94724019028502
 42
0.0
 10
701.4677695992724
 20
118.09844019028526
 42
0.0
 10
701.25176959927205
 20
118.21724019028518
 42
0.0
 10
701.0141695992719
 20
118.33604019028509
 42
0.0
 10
700.7117695992722
 20
118.44404019028526
 42
0.0
 10
700.59296959927144
 20
118.48724019028505
 42
0.0
 10
700.45256959927178
 20
118.5196401902851
 42
0.0
 10
700.29056959927152
 20
118.55204019028515
 42
0.0
 10
700.09616959927178
 20
118.59524019028522
 42
0.0
 10
699.91256959927182
 20
118.63844019028529
 42
0.0
 10
699.67496959927166
 20
118.68164019028508
 42
0.0
 10
699.44816959927186
 20
118.72484019028515
 42
0.0
 10
699.17816959927143
 20
118.77884019028495
 42
0.0
 10
698.89736959927188
 20
118.81124019028501
 42
0.0
 10
698.59496959927162
 20
118.85444019028509
 42
0.0
 10
698.26016959927165
 20
118.90844019028518
 42
0.0
 10
697.92536959927133
 20
118.96244019028498
 42
0.0
 10
697.55816959927165
 20
119.00564019028505
 42
0.0
 10
697.16936959927159
 20
119.05964019028514
 42
0.0
 10
696.76976959927174
 20
119.11364019028522
 42
0.0
 10
696.33776959927195
 20
119.16764019028503
 42
0.0
 10
695.77616959927161
 20
119.25404019028517
 42
0.0
 10
695.21456959927173
 20
119.31884019028527
 42
0.0
 10
694.68536959927144
 20
119.38364019028509
 42
0.0
 10
694.17776959927176
 20
119.45924019028521
 42
0.0
 10
693.69176959927154
 20
119.52404019028504
 42
0.0
 10
693.22736959927192
 20
119.58884019028487
 42
0.0
 10
692.78456959927178
 20
119.66444019028528
 42
0.0
 10
692.35256959927165
 20
119.7292401902851
 42
0.0
 10
691.96376959927159
 20
119.7832401902849
 42
0.0
 10
691.59656959927122
 20
119.85884019028502
 42
0.0
 10
691.24016959927155
 20
119.90204019028509
 42
0.0
 10
690.9161695992716
 20
119.9668401902852
 42
0.0
 10
690.60296959927189
 20
120.0316401902853
 42
0.0
 10
690.31136959927142
 20
120.0856401902851
 42
0.0
 10
690.06296959927158
 20
120.13964019028519
 42
0.0
 10
689.82536959927154
 20
120.193640190285
 42
0.0
 10
689.39336959927164
 20
120.3124401902852
 42
0.0
 10
688.98296959927177
 20
120.43124019028511
 42
0.0
 10
688.57256959927111
 20
120.56084019028503
 42
0.0
 10
688.21616959927144
 20
120.71204019028528
 42
0.0
 10
687.90296959927173
 20
120.87404019028497
 42
0.0
 10
687.58976959927122
 20
121.02524019028523
 42
0.0
 10
687.31976959927135
 20
121.20884019028496
 42
0.0
 10
687.06056959927184
 20
121.40324019028499
 42
0.0
 10
686.85536959927117
 20
121.586840190285
 42
0.0
 10
686.65016959927198
 20
121.79204019028506
 42
0.0
 10
686.48816959927171
 20
121.98644019028509
 42
0.0
 10
686.36936959927152
 20
122.20244019028516
 42
0.0
 10
686.26136959927135
 20
122.41844019028524
 42
0.0
 10
686.19656959927124
 20
122.63444019028502
 42
0.0
 10
686.15336959927174
 20
122.8612401902851
 42
0.0
 10
686.12096959927169
 20
123.08804019028518
 42
0.0
 10
686.14256959927116
 20
123.30404019028526
 42
0.0
 10
686.17496959927178
 20
123.50924019028531
 42
0.0
 10
686.25056959927133
 20
123.70364019028506
 42
0.0
 10
686.32616959927145
 20
123.90884019028512
 42
0.0
 10
686.42336959927161
 20
124.09244019028513
 42
0.0
 10
686.56376959927127
 20
124.28684019028516
 42
0.0
 10
686.72576959927153
 20
124.47044019028517
 42
0.0
 10
686.89856959927181
 20
124.6540401902852
 42
0.0
 10
687.10376959927157
 20
124.8268401902852
 42
0.0
 10
687.31976959927135
 20
124.99964019028519
 42
0.0
 10
687.55736959927174
 20
125.15084019028515
 42
0.0
 10
687.81656959927136
 20
125.31284019028514
 42
0.0
 10
688.08656959927146
 20
125.4640401902851
 42
0.0
 10
688.37816959927079
 20
125.59364019028531
 42
0.0
 10
688.68056959927128
 20
125.72324019028495
 42
0.0
 10
689.00456959927101
 20
125.84204019028515
 42
0.0
 10
689.26376959927143
 20
125.9392401902853
 42
0.0
 10
689.54456959927154
 20
126.02564019028517
 42
0.0
 10
689.85776959927182
 20
126.11204019028503
 42
0.0
 10
690.18176959927212
 20
126.18764019028515
 42
0.0
 10
690.52736959927176
 20
126.25244019028526
 42
0.0
 10
690.9161695992716
 20
126.32804019028509
 42
0.0
 10
691.30496959927166
 20
126.40364019028522
 42
0.0
 10
691.71536959927175
 20
126.46844019028532
 42
0.0
 10
692.16896959927135
 20
126.52244019028512
 42
0.0
 10
692.60096959927205
 20
126.58724019028523
 42
0.0
 10
693.05456959927108
 20
126.63044019028501
 42
0.0
 10
693.50816959927181
 20
126.66284019028508
 42
0.0
 10
693.97256959927142
 20
126.69524019028513
 42
0.0
 10
694.43696959927161
 20
126.70604019028515
 42
0.0
 10
694.93376959927127
 20
126.71684019028517
 42
0.0
 10
695.40896959927159
 20
126.71684019028517
 42
0.0
 10
696.14336959927164
 20
126.71684019028517
 42
0.0
 10
696.85616959927165
 20
126.70604019028515
 42
0.0
 10
697.54736959927163
 20
126.6736401902851
 42
0.0
 10
698.20616959927156
 20
126.619640190285
 42
0.0
 10
698.8433695992718
 20
126.56564019028519
 42
0.0
 10
699.45896959927165
 20
126.49004019028507
 42
0.0
 10
700.05296959927171
 20
126.40364019028522
 42
0.0
 10
700.61456959927204
 20
126.29564019028504
 42
0.0
 10
701.16536959927157
 20
126.18764019028515
 42
0.0
 10
701.66216959927158
 20
126.06884019028524
 42
0.0
 10
702.1481695992718
 20
125.9392401902853
 42
0.0
 10
702.58016959927193
 20
125.79884019028508
 42
0.0
 10
702.96896959927199
 20
125.64764019028512
 42
0.0
 10
703.32536959927143
 20
125.48564019028514
 42
0.0
 10
703.66016959927163
 20
125.31284019028514
 42
0.0
 10
703.94096959927185
 20
125.14004019028513
 42
0.0
 10
704.18936959927169
 20
124.9456401902851
 42
0.0
 10
704.42696959927207
 20
124.74044019028534
 42
0.0
 10
704.64296959927162
 20
124.52444019028528
 42
0.0
 10
704.83736959927194
 20
124.28684019028516
 42
0.0
 10
705.01016959927165
 20
124.03844019028504
 42
0.0
 10
705.17216959927157
 20
123.76844019028516
 42
0.0
 10
705.3125695992718
 20
123.48764019028499
 42
0.0
 10
705.40976959927195
 20
123.17444019028505
 42
0.0
 10
701.23016959927202
 20
122.90444019028517
 42
0.0
 10
701.13296959927186
 20
123.13124019028527
 42
0.0
 10
701.02496959927169
 20
123.35804019028507
 42
0.0
 10
700.86296959927131
 20
123.56324019028511
 42
0.0
 10
700.6685695992719
 20
123.76844019028516
 42
0.0
 10
700.45256959927178
 20
123.95204019028519
 42
0.0
 10
700.19336959927193
 20
124.11404019028517
 42
0.0
 10
699.91256959927182
 20
124.27604019028514
 42
0.0
 10
699.58856959927152
 20
124.4272401902851
 42
0.0
 10
699.21056959927148
 20
124.55684019028533
 42
0.0
 10
698.83256959927178
 20
124.6540401902852
 42
0.0
 10
698.40056959927131
 20
124.75124019028507
 42
0.0
 10
697.93616959927169
 20
124.8268401902852
 42
0.0
 10
697.43936959927169
 20
124.8916401902853
 42
0.0
 10
696.89936959927172
 20
124.93484019028537
 42
0.0
 10
696.32696959927137
 20
124.96724019028514
 42
0.0
 10
695.73296959927154
 20
124.96724019028514
 42
0.0
 10
695.00936959927139
 20
124.96724019028514
 42
0.0
 10
694.36136959927148
 20
124.93484019028537
 42
0.0
 10
693.75656959927164
 20
124.90244019028532
 42
0.0
 10
693.19496959927187
 20
124.84844019028523
 42
0.0
 10
692.69816959927164
 20
124.77284019028511
 42
0.0
 10
692.24456959927204
 20
124.68644019028497
 42
0.0
 10
691.86656959927143
 20
124.60004019028511
 42
0.0
 10
691.52096959927201
 20
124.48124019028519
 42
0.0
 10
691.2293695992721
 20
124.35164019028498
 42
0.0
 10
690.97016959927169
 20
124.22204019028506
 42
0.0
 10
690.75416959927156
 20
124.08164019028511
 42
0.0
 10
690.58136959927128
 20
123.95204019028519
 42
0.0
 10
690.44096959927163
 20
123.80084019028493
 42
0.0
 10
690.34376959927147
 20
123.64964019028525
 42
0.0
 10
690.27896959927136
 20
123.50924019028531
 42
0.0
 10
690.2573695992719
 20
123.34724019028505
 42
0.0
 10
690.27896959927136
 20
123.22844019028514
 42
0.0
 10
690.28976959927172
 20
123.13124019028527
 42
0.0
 10
690.34376959927147
 20
123.0340401902851
 42
0.0
 10
690.39776959927156
 20
122.94764019028524
 42
0.0
 10
690.46256959927166
 20
122.85044019028537
 42
0.0
 10
690.55976959927125
 20
122.76404019028523
 42
0.0
 10
690.65696959927141
 20
122.67764019028509
 42
0.0
 10
690.7757695992716
 20
122.59124019028523
 42
0.0
 10
690.92696959927162
 20
122.50484019028509
 42
0.0
 10
691.08896959927188
 20
122.42924019028526
 42
0.0
 10
691.25096959927214
 20
122.35364019028512
 42
0.0
 10
691.4561695992719
 20
122.27804019028528
 42
0.0
 10
691.66136959927132
 20
122.20244019028516
 42
0.0
 10
691.9097695992715
 20
122.13764019028505
 42
0.0
 10
692.16896959927135
 20
122.07284019028495
 42
0.0
 10
692.4281695992712
 20
122.01884019028515
 42
0.0
 10
692.51456959927191
 20
121.99724019028511
 42
0.0
 10
692.63336959927153
 20
121.98644019028509
 42
0.0
 10
692.75216959927172
 20
121.97564019028508
 42
0.0
 10
692.90336959927174
 20
121.94324019028502
 42
0.0
 10
693.06536959927166
 20
121.92164019028527
 42
0.0
 10
693.25976959927141
 20
121.88924019028522
 42
0.0
 10
693.45416959927172
 20
121.85684019028517
 42
0.0
 10
693.69176959927154
 20
121.82444019028512
 42
0.0
 10
693.94016959927137
 20
121.79204019028506
 42
0.0
 10
694.21016959927124
 20
121.74884019028499
 42
0.0
 10
694.48016959927168
 20
121.70564019028521
 42
0.0
 10
694.79336959927161
 20
121.67324019028514
 42
0.0
 10
695.10656959927155
 20
121.61924019028505
 42
0.0
 10
695.44136959927107
 20
121.57604019028527
 42
0.0
 10
695.8301695992717
 20
121.5220401902849
 42
0.0
 10
696.19736959927172
 20
121.46804019028509
 42
0.0
 10
696.74816959927148
 20
121.40324019028499
 42
0.0
 10
697.29896959927146
 20
121.32764019028515
 42
0.0
 10
697.79576959927147
 20
121.26284019028505
 42
0.0
 10
698.2925695992717
 20
121.18724019028521
 42
0.0
 10
698.76776959927224
 20
121.11164019028509
 42
0.0
 10
699.21056959927148
 20
121.04684019028498
 42
0.0
 10
699.64256959927161
 20
120.98204019028516
 42
0.0
 10
700.05296959927171
 20
120.91724019028533
 42
0.0
 10
700.44176959927177
 20
120.86324019028496
 42
0.0
 10
700.79816959927177
 20
120.79844019028513
 42
0.0
 10
701.13296959927186
 20
120.74444019028505
 42
0.0
 10
701.45696959927182
 20
120.69044019028524
 42
0.0
 10
701.75936959927174
 20
120.63644019028516
 42
0.0
 10
702.04016959927162
 20
120.58244019028507
 42
0.0
 10
702.28856959927259
 20
120.52844019028498
 42
0.0
 10
702.53696959927186
 20
120.47444019028518
 42
0.0
 10
702.95816959927197
 20
120.38804019028504
 42
0.0
 10
703.36856959927206
 20
120.26924019028513
 42
0.0
 10
703.75736959927178
 20
120.13964019028519
 42
0.0
 10
704.12456959927158
 20
120.01004019028498
 42
0.0
 10
704.47016959927214
 20
119.86964019028504
 42
0.0
 10
704.7941695992721
 20
119.70764019028506
 42
0.0
 10
705.07496959927175
 20
119.53484019028505
 42
0.0
 10
705.33416959927183
 20
119.35124019028504
 42
0.0
 10
705.58256959927166
 20
119.16764019028503
 42
0.0
 10
705.787769599272
 20
118.96244019028498
 42
0.0
 10
705.96056959927171
 20
118.7572401902852
 42
0.0
 10
706.10096959927193
 20
118.54124019028514
 42
0.0
 10
706.2197695992719
 20
118.29284019028502
 42
0.0
 10
706.3061695992717
 20
118.05524019028519
 42
0.0
 10
706.33856959927266
 20
117.79604019028505
 42
0.0
 10
706.3709695992718
 20
117.52604019028519
 42
0.0
 10
706.33856959927266
 20
117.25604019028502
 42
0.0
 10
706.28456959927166
 20
117.00764019028519
 42
0.0
 10
706.17656959927183
 20
116.73764019028503
 42
0.0
 10
706.04696959927219
 20
116.48924019028519
 42
0.0
 10
705.87416959927214
 20
116.24084019028535
 42
0.0
 10
705.6689695992718
 20
115.99244019028494
 42
0.0
 10
705.40976959927195
 20
115.75484019028512
 42
0.0
 10
705.11816959927182
 20
115.51724019028502
 42
0.0
 10
704.7941695992721
 20
115.27964019028491
 42
0.0
 10
704.41616959927205
 20
115.07444019028486
 42
0.0
 10
704.01656959927141
 20
114.8692401902851
 42
0.0
 10
703.59536959927186
 20
114.67484019028507
 42
0.0
 10
703.13096959927168
 20
114.50204019028506
 42
0.0
 10
702.63416959927201
 20
114.3400401902848
 42
0.0
 10
702.08336959927192
 20
114.18884019028512
 42
0.0
 10
701.5109695992719
 20
114.05924019028491
 42
0.0
 10
700.91696959927174
 20
113.940440190285
 42
0.0
 10
700.30136959927154
 20
113.83244019028481
 42
0.0
 10
699.66416959927199
 20
113.73524019028494
 42
0.0
 10
699.01616959927173
 20
113.6596401902851
 42
0.0
 10
698.34656959927156
 20
113.60564019028502
 42
0.0
 10
697.63376959927143
 20
113.57324019028496
 42
0.0
 10
696.93176959927177
 20
113.54084019028491
 42
0.0
 10
696.19736959927172
 20
113.54084019028491
 42
0.0
 10
695.59256959927154
 20
113.54084019028491
 42
0.0
 10
695.00936959927139
 20
113.55164019028493
 42
0.0
 10
694.43696959927161
 20
113.57324019028496
 42
0.0
 10
693.88616959927185
 20
113.60564019028502
 42
0.0
 10
693.34616959927155
 20
113.63804019028507
 42
0.0
 10
692.8385695992713
 20
113.68124019028485
 42
0.0
 10
692.3417695992722
 20
113.73524019028494
 42
0.0
 10
691.86656959927143
 20
113.78924019028503
 42
0.0
 10
691.40216959927182
 20
113.86484019028487
 42
0.0
 10
690.97016959927169
 20
113.940440190285
 42
0.0
 10
690.54896959927123
 20
114.02684019028486
 42
0.0
 10
690.1385695992717
 20
114.113240190285
 42
0.0
 10
689.76056959927166
 20
114.21044019028515
 42
0.0
 10
689.39336959927164
 20
114.31844019028505
 42
0.0
 10
689.03696959927186
 20
114.43724019028495
 42
0.0
 10
688.71296959927133
 20
114.56684019028488
 42
0.0
 10
688.39976959927139
 20
114.6964401902851
 42
0.0
 10
688.08656959927146
 20
114.83684019028505
 42
0.0
 10
687.81656959927136
 20
114.97724019028499
 42
0.0
 10
687.52496959927169
 20
115.12844019028523
 42
0.0
 10
687.27656959927185
 20
115.30124019028496
 42
0.0
 10
687.03896959927147
 20
115.46324019028494
 42
0.0
 10
686.82296959927112
 20
115.64684019028495
 42
0.0
 10
686.59616959927132
 20
115.83044019028496
 42
0.0
 10
686.40176959927101
 20
116.024840190285
 42
0.0
 10
686.21816959927185
 20
116.21924019028503
 42
0.0
 10
686.045369599271
 20
116.4352401902851
 42
0.0
 10
685.8833695992713
 20
116.65124019028488
 42
0.0
 10
685.75376959927166
 20
116.86724019028524
 42
0.0
 10
685.62416959927145
 20
117.10484019028506
 42
0.0
 10
685.51616959927128
 20
117.34244019028488
 42
0.0
 10
685.41896959927112
 20
117.59084019028501
 42
0.0
 10
689.6417695992717
 20
117.92564019028498
 42
0.0
 10
689.76056959927166
 20
117.61244019028504
 42
0.0
 10
689.91176959927168
 20
117.32084019028513
 42
0.0
 10
690.08456959927196
 20
117.05084019028497
 42
0.0
 10
690.31136959927142
 20
116.79164019028512
 42
0.0
 10
690.58136959927128
 20
116.56484019028503
 42
0.0
 10
690.90536959927158
 20
116.34884019028496
 42
0.0
 10
691.24016959927155
 20
116.15444019028493
 42
0.0
 10
691.63976959927163
 20
115.9816401902852
 42
0.0
 10
692.06096959927174
 20
115.80884019028493
 42
0.0
 10
692.51456959927191
 20
115.66844019028527
 42
0.0
 10
693.03296959927161
 20
115.57124019028511
 42
0.0
 10
693.58376959927136
 20
115.46324019028494
 42
0.0
 10
694.16696959927174
 20
115.3876401902851
 42
0.0
 10
694.80416959927163
 20
115.33364019028501
 42
0.0
 10
695.46296959927133
 20
115.30124019028496
 42
0.0
 10
696.17576959927169
 20
115.30124019028496
 42
0.0
 10
696.88856959927114
 20
115.30124019028496
 42
0.0
 10
697.54736959927163
 20
115.33364019028501
 42
0.0
 10
698.16296959927149
 20
115.3876401902851
 42
0.0
 10
698.73536959927162
 20
115.44164019028518
 42
0.0
 10
699.25376959927155
 20
115.53884019028506
 42
0.0
 10
699.72896959927152
 20
115.64684019028495
 42
0.0
 10
700.15016959927186
 20
115.75484019028512
 42
0.0
 10
700.54976959927194
 20
115.89524019028507
 42
0.0
 10
700.87376959927167
 20
116.04644019028504
 42
0.0
 10
701.16536959927157
 20
116.197640190285
 42
0.0
 10
701.41376959927175
 20
116.370440190285
 42
0.0
 10
701.61896959927208
 20
116.54324019028499
 42
0.0
 10
701.75936959927174
 20
116.71604019028499
 42
0.0
 10
701.87816959927193
 20
116.91044019028503
 42
0.0
 97
        0
 75
     0
 76
     1
 98
        1
 10
0.0
 20
0.0
  0
POLYLINE
  5
A3
100
AcDbEntity
  8
LAY-1
  6
CONTINUOUS
 62
     7
100
AcDb2dPolyline
 66
     1
 10
0.0
 20
0.0
 30
0.0
 70
   128
  0
VERTEX
  5
A4
100
AcDbEntity
  8
LAY-1
  6
CONTINUOUS
 62
     7
100
AcDbVertex
100
AcDb2dVertex
 10
690.34377
 20
123.03404
 30
0.0
  0
VERTEX
  5
A5
100
AcDbEntity
  8
LAY-1
  6
CONTINUOUS
 62
     7
100
AcDbVertex
100
AcDb2dVertex
 10
690.39777
 20
122.94764
 30
0.0
  0
VERTEX
  5
A6
100
AcDbEntity
  8
LAY-1
  6
CONTINUOUS
 62
     7
100
AcDbVertex
100
AcDb2dVertex
 10
690.46257
 20
122.85044
 30
0.0
  0
VERTEX
  5
A7
100
AcDbEntity
  8
LAY-1
  6
CONTINUOUS
 62
     7
100
AcDbVertex
100
AcDb2dVertex
 10
690.55977
 20
122.76404
 30
0.0
  0
VERTEX
  5
A8
100
AcDbEntity
  8
LAY-1
  6
CONTINUOUS
 62
     7
100
AcDbVertex
100
AcDb2dVertex
 10
690.65697
 20
122.67764
 30
0.0
  0
VERTEX
  5
A9
100
AcDbEntity
  8
LAY-1
  6
CONTINUOUS
 62
     7
100
AcDbVertex
100
AcDb2dVertex
 10
690.77577
 20
122.59124
 30
0.0
  0
VERTEX
  5
AA
100
AcDbEntity
  8
LAY-1
  6
CONTINUOUS
 62
     7
100
AcDbVertex
100
AcDb2dVertex
 10
690.92697
 20
122.50484
 30
0.0
  0
VERTEX
  5
AB
100
AcDbEntity
  8
LAY-1
  6
CONTINUOUS
 62
     7
100
AcDbVertex
100
AcDb2dVertex
 10
691.08897
 20
122.42924
 30
0.0
  0
VERTEX
  5
AC
100
AcDbEntity
  8
LAY-1
  6
CONTINUOUS
 62
     7
100
AcDbVertex
100
AcDb2dVertex
 10
691.25097
 20
122.35364
 30
0.0
  0
VERTEX
  5
AD
100
AcDbEntity
  8
LAY-1
  6
CONTINUOUS
 62
     7
100
AcDbVertex
100
AcDb2dVertex
 10
691.45617
 20
122.27804
 30
0.0
  0
VERTEX
  5
AE
100
AcDbEntity
  8
LAY-1
  6
CONTINUOUS
 62
     7
100
AcDbVertex
100
AcDb2dVertex
 10
691.66137
 20
122.20244
 30
0.0
  0
VERTEX
  5
AF
100
AcDbEntity
  8
LAY-1
  6
CONTINUOUS
 62
     7
100
AcDbVertex
100
AcDb2dVertex
 10
691.90977
 20
122.13764
 30
0.0
  0
VERTEX
  5
B0
100
AcDbEntity
  8
LAY-1
  6
CONTINUOUS
 62
     7
100
AcDbVertex
100
AcDb2dVertex
 10
692.16897
 20
122.07284
 30
0.0
  0
VERTEX
  5
B1
100
AcDbEntity
  8
LAY-1
  6
CONTINUOUS
 62
     7
100
AcDbVertex
100
AcDb2dVertex
 10
692.42817
 20
122.01884
 30
0.0
  0
VERTEX
  5
B2
100
AcDbEntity
  8
LAY-1
  6
CONTINUOUS
 62
     7
100
AcDbVertex
100
AcDb2dVertex
 10
692.51457
 20
121.99724
 30
0.0
  0
VERTEX
  5
B3
100
AcDbEntity
  8
LAY-1
  6
CONTINUOUS
 62
     7
100
AcDbVertex
100
AcDb2dVertex
 10
692.63337
 20
121.98644
 30
0.0
  0
VERTEX
  5
B4
100
AcDbEntity
  8
LAY-1
  6
CONTINUOUS
 62
     7
100
AcDbVertex
100
AcDb2dVertex
 10
692.75217
 20
121.97564
 30
0.0
  0
VERTEX
  5
B5
100
AcDbEntity
  8
LAY-1
  6
CONTINUOUS
 62
     7
100
AcDbVertex
100
AcDb2dVertex
 10
692.90337
 20
121.94324
 30
0.0
  0
VERTEX
  5
B6
100
AcDbEntity
  8
LAY-1
  6
CONTINUOUS
 62
     7
100
AcDbVertex
100
AcDb2dVertex
 10
693.06537
 20
121.92164
 30
0.0
  0
VERTEX
  5
B7
100
AcDbEntity
  8
LAY-1
  6
CONTINUOUS
 62
     7
100
AcDbVertex
100
AcDb2dVertex
 10
693.25977
 20
121.88924
 30
0.0
  0
VERTEX
  5
B8
100
AcDbEntity
  8
LAY-1
  6
CONTINUOUS
 62
     7
100
AcDbVertex
100
AcDb2dVertex
 10
693.45417
 20
121.85684
 30
0.0
  0
VERTEX
  5
B9
100
AcDbEntity
  8
LAY-1
  6
CONTINUOUS
 62
     7
100
AcDbVertex
100
AcDb2dVertex
 10
693.69177
 20
121.82444
 30
0.0
  0
VERTEX
  5
BA
100
AcDbEntity
  8
LAY-1
  6
CONTINUOUS
 62
     7
100
AcDbVertex
100
AcDb2dVertex
 10
693.94017
 20
121.79204
 30
0.0
  0
VERTEX
  5
BB
100
AcDbEntity
  8
LAY-1
  6
CONTINUOUS
 62
     7
100
AcDbVertex
100
AcDb2dVertex
 10
694.21017
 20
121.74884
 30
0.0
  0
VERTEX
  5
BC
100
AcDbEntity
  8
LAY-1
  6
CONTINUOUS
 62
     7
100
AcDbVertex
100
AcDb2dVertex
 10
694.48017
 20
121.70564
 30
0.0
  0
VERTEX
  5
BD
100
AcDbEntity
  8
LAY-1
  6
CONTINUOUS
 62
     7
100
AcDbVertex
100
AcDb2dVertex
 10
694.79337
 20
121.67324
 30
0.0
  0
VERTEX
  5
BE
100
AcDbEntity
  8
LAY-1
  6
CONTINUOUS
 62
     7
100
AcDbVertex
100
AcDb2dVertex
 10
695.10657
 20
121.61924
 30
0.0
  0
VERTEX
  5
BF
100
AcDbEntity
  8
LAY-1
  6
CONTINUOUS
 62
     7
100
AcDbVertex
100
AcDb2dVertex
 10
695.44137
 20
121.57604
 30
0.0
  0
VERTEX
  5
C0
100
AcDbEntity
  8
LAY-1
  6
CONTINUOUS
 62
     7
100
AcDbVertex
100
AcDb2dVertex
 10
695.83017
 20
121.52204
 30
0.0
  0
VERTEX
  5
C1
100
AcDbEntity
  8
LAY-1
  6
CONTINUOUS
 62
     7
100
AcDbVertex
100
AcDb2dVertex
 10
696.19737
 20
121.46804
 30
0.0
  0
VERTEX
  5
C2
100
AcDbEntity
  8
LAY-1
  6
CONTINUOUS
 62
     7
100
AcDbVertex
100
AcDb2dVertex
 10
696.74817
 20
121.40324
 30
0.0
  0
VERTEX
  5
C3
100
AcDbEntity
  8
LAY-1
  6
CONTINUOUS
 62
     7
100
AcDbVertex
100
AcDb2dVertex
 10
697.29897
 20
121.32764
 30
0.0
  0
VERTEX
  5
C4
100
AcDbEntity
  8
LAY-1
  6
CONTINUOUS
 62
     7
100
AcDbVertex
100
AcDb2dVertex
 10
697.79577
 20
121.26284
 30
0.0
  0
VERTEX
  5
C5
100
AcDbEntity
  8
LAY-1
  6
CONTINUOUS
 62
     7
100
AcDbVertex
100
AcDb2dVertex
 10
698.29257
 20
121.18724
 30
0.0
  0
VERTEX
  5
C6
100
AcDbEntity
  8
LAY-1
  6
CONTINUOUS
 62
     7
100
AcDbVertex
100
AcDb2dVertex
 10
698.76777
 20
121.11164
 30
0.0
  0
VERTEX
  5
C7
100
AcDbEntity
  8
LAY-1
  6
CONTINUOUS
 62
     7
100
AcDbVertex
100
AcDb2dVertex
 10
699.21057
 20
121.04684
 30
0.0
  0
VERTEX
  5
C8
100
AcDbEntity
  8
LAY-1
  6
CONTINUOUS
 62
     7
100
AcDbVertex
100
AcDb2dVertex
 10
699.64257
 20
120.98204
 30
0.0
  0
VERTEX
  5
C9
100
AcDbEntity
  8
LAY-1
  6
CONTINUOUS
 62
     7
100
AcDbVertex
100
AcDb2dVertex
 10
700.05297
 20
120.91724
 30
0.0
  0
VERTEX
  5
CA
100
AcDbEntity
  8
LAY-1
  6
CONTINUOUS
 62
     7
100
AcDbVertex
100
AcDb2dVertex
 10
700.44177
 20
120.86324
 30
0.0
  0
VERTEX
  5
CB
100
AcDbEntity
  8
LAY-1
  6
CONTINUOUS
 62
     7
100
AcDbVertex
100
AcDb2dVertex
 10
700.79817
 20
120.79844
 30
0.0
  0
VERTEX
  5
CC
100
AcDbEntity
  8
LAY-1
  6
CONTINUOUS
 62
     7
100
AcDbVertex
100
AcDb2dVertex
 10
701.13297
 20
120.74444
 30
0.0
  0
VERTEX
  5
CD
100
AcDbEntity
  8
LAY-1
  6
CONTINUOUS
 62
     7
100
AcDbVertex
100
AcDb2dVertex
 10
701.45697
 20
120.69044
 30
0.0
  0
VERTEX
  5
CE
100
AcDbEntity
  8
LAY-1
  6
CONTINUOUS
 62
     7
100
AcDbVertex
100
AcDb2dVertex
 10
701.75937
 20
120.63644
 30
0.0
  0
VERTEX
  5
CF
100
AcDbEntity
  8
LAY-1
  6
CONTINUOUS
 62
     7
100
AcDbVertex
100
AcDb2dVertex
 10
702.04017
 20
120.58244
 30
0.0
  0
VERTEX
  5
D0
100
AcDbEntity
  8
LAY-1
  6
CONTINUOUS
 62
     7
100
AcDbVertex
100
AcDb2dVertex
 10
702.28857
 20
120.52844
 30
0.0
  0
VERTEX
  5
D1
100
AcDbEntity
  8
LAY-1
  6
CONTINUOUS
 62
     7
100
AcDbVertex
100
AcDb2dVertex
 10
702.53697
 20
120.47444
 30
0.0
  0
VERTEX
  5
D2
100
AcDbEntity
  8
LAY-1
  6
CONTINUOUS
 62
     7
100
AcDbVertex
100
AcDb2dVertex
 10
702.95817
 20
120.38804
 30
0.0
  0
VERTEX
  5
D3
100
AcDbEntity
  8
LAY-1
  6
CONTINUOUS
 62
     7
100
AcDbVertex
100
AcDb2dVertex
 10
703.36857
 20
120.26924
 30
0.0
  0
VERTEX
  5
D4
100
AcDbEntity
  8
LAY-1
  6
CONTINUOUS
 62
     7
100
AcDbVertex
100
AcDb2dVertex
 10
703.75737
 20
120.13964
 30
0.0
  0
VERTEX
  5
D5
100
AcDbEntity
  8
LAY-1
  6
CONTINUOUS
 62
     7
100
AcDbVertex
100
AcDb2dVertex
 10
704.12457
 20
120.01004
 30
0.0
  0
VERTEX
  5
D6
100
AcDbEntity
  8
LAY-1
  6
CONTINUOUS
 62
     7
100
AcDbVertex
100
AcDb2dVertex
 10
704.47017
 20
119.86964
 30
0.0
  0
VERTEX
  5
D7
100
AcDbEntity
  8
LAY-1
  6
CONTINUOUS
 62
     7
100
AcDbVertex
100
AcDb2dVertex
 10
704.79417
 20
119.70764
 30
0.0
  0
VERTEX
  5
D8
100
AcDbEntity
  8
LAY-1
  6
CONTINUOUS
 62
     7
100
AcDbVertex
100
AcDb2dVertex
 10
705.07497
 20
119.53484
 30
0.0
  0
VERTEX
  5
D9
100
AcDbEntity
  8
LAY-1
  6
CONTINUOUS
 62
     7
100
AcDbVertex
100
AcDb2dVertex
 10
705.33417
 20
119.35124
 30
0.0
  0
VERTEX
  5
DA
100
AcDbEntity
  8
LAY-1
  6
CONTINUOUS
 62
     7
100
AcDbVertex
100
AcDb2dVertex
 10
705.58257
 20
119.16764
 30
0.0
  0
VERTEX
  5
DB
100
AcDbEntity
  8
LAY-1
  6
CONTINUOUS
 62
     7
100
AcDbVertex
100
AcDb2dVertex
 10
705.78777
 20
118.96244
 30
0.0
  0
VERTEX
  5
DC
100
AcDbEntity
  8
LAY-1
  6
CONTINUOUS
 62
     7
100
AcDbVertex
100
AcDb2dVertex
 10
705.96057
 20
118.75724
 30
0.0
  0
VERTEX
  5
DD
100
AcDbEntity
  8
LAY-1
  6
CONTINUOUS
 62
     7
100
AcDbVertex
100
AcDb2dVertex
 10
706.10097
 20
118.54124
 30
0.0
  0
VERTEX
  5
DE
100
AcDbEntity
  8
LAY-1
  6
CONTINUOUS
 62
     7
100
AcDbVertex
100
AcDb2dVertex
 10
706.21977
 20
118.29284
 30
0.0
  0
VERTEX
  5
DF
100
AcDbEntity
  8
LAY-1
  6
CONTINUOUS
 62
     7
100
AcDbVertex
100
AcDb2dVertex
 10
706.30617
 20
118.05524
 30
0.0
  0
VERTEX
  5
E0
100
AcDbEntity
  8
LAY-1
  6
CONTINUOUS
 62
     7
100
AcDbVertex
100
AcDb2dVertex
 10
706.33857
 20
117.79604
 30
0.0
  0
VERTEX
  5
E1
100
AcDbEntity
  8
LAY-1
  6
CONTINUOUS
 62
     7
100
AcDbVertex
100
AcDb2dVertex
 10
706.37097
 20
117.52604
 30
0.0
  0
VERTEX
  5
E2
100
AcDbEntity
  8
LAY-1
  6
CONTINUOUS
 62
     7
100
AcDbVertex
100
AcDb2dVertex
 10
706.33857
 20
117.25604
 30
0.0
  0
VERTEX
  5
E3
100
AcDbEntity
  8
LAY-1
  6
CONTINUOUS
 62
     7
100
AcDbVertex
100
AcDb2dVertex
 10
706.28457
 20
117.00764
 30
0.0
  0
VERTEX
  5
E4
100
AcDbEntity
  8
LAY-1
  6
CONTINUOUS
 62
     7
100
AcDbVertex
100
AcDb2dVertex
 10
706.17657
 20
116.73764
 30
0.0
  0
VERTEX
  5
E5
100
AcDbEntity
  8
LAY-1
  6
CONTINUOUS
 62
     7
100
AcDbVertex
100
AcDb2dVertex
 10
706.04697
 20
116.48924
 30
0.0
  0
VERTEX
  5
E6
100
AcDbEntity
  8
LAY-1
  6
CONTINUOUS
 62
     7
100
AcDbVertex
100
AcDb2dVertex
 10
705.87417
 20
116.24084
 30
0.0
  0
VERTEX
  5
E7
100
AcDbEntity
  8
LAY-1
  6
CONTINUOUS
 62
     7
100
AcDbVertex
100
AcDb2dVertex
 10
705.66897
 20
115.99244
 30
0.0
  0
VERTEX
  5
E8
100
AcDbEntity
  8
LAY-1
  6
CONTINUOUS
 62
     7
100
AcDbVertex
100
AcDb2dVertex
 10
705.40977
 20
115.75484
 30
0.0
  0
VERTEX
  5
E9
100
AcDbEntity
  8
LAY-1
  6
CONTINUOUS
 62
     7
100
AcDbVertex
100
AcDb2dVertex
 10
705.11817
 20
115.51724
 30
0.0
  0
VERTEX
  5
EA
100
AcDbEntity
  8
LAY-1
  6
CONTINUOUS
 62
     7
100
AcDbVertex
100
AcDb2dVertex
 10
704.79417
 20
115.27964
 30
0.0
  0
VERTEX
  5
EB
100
AcDbEntity
  8
LAY-1
  6
CONTINUOUS
 62
     7
100
AcDbVertex
100
AcDb2dVertex
 10
704.41617
 20
115.07444
 30
0.0
  0
VERTEX
  5
EC
100
AcDbEntity
  8
LAY-1
  6
CONTINUOUS
 62
     7
100
AcDbVertex
100
AcDb2dVertex
 10
704.01657
 20
114.86924
 30
0.0
  0
VERTEX
  5
ED
100
AcDbEntity
  8
LAY-1
  6
CONTINUOUS
 62
     7
100
AcDbVertex
100
AcDb2dVertex
 10
703.59537
 20
114.67484
 30
0.0
  0
VERTEX
  5
EE
100
AcDbEntity
  8
LAY-1
  6
CONTINUOUS
 62
     7
100
AcDbVertex
100
AcDb2dVertex
 10
703.13097
 20
114.50204
 30
0.0
  0
VERTEX
  5
EF
100
AcDbEntity
  8
LAY-1
  6
CONTINUOUS
 62
     7
100
AcDbVertex
100
AcDb2dVertex
 10
702.63417
 20
114.34004
 30
0.0
  0
VERTEX
  5
F0
100
AcDbEntity
  8
LAY-1
  6
CONTINUOUS
 62
     7
100
AcDbVertex
100
AcDb2dVertex
 10
702.08337
 20
114.18884
 30
0.0
  0
VERTEX
  5
F1
100
AcDbEntity
  8
LAY-1
  6
CONTINUOUS
 62
     7
100
AcDbVertex
100
AcDb2dVertex
 10
701.51097
 20
114.05924
 30
0.0
  0
VERTEX
  5
F2
100
AcDbEntity
  8
LAY-1
  6
CONTINUOUS
 62
     7
100
AcDbVertex
100
AcDb2dVertex
 10
700.91697
 20
113.94044
 30
0.0
  0
VERTEX
  5
F3
100
AcDbEntity
  8
LAY-1
  6
CONTINUOUS
 62
     7
100
AcDbVertex
100
AcDb2dVertex
 10
700.30137
 20
113.83244
 30
0.0
  0
VERTEX
  5
F4
100
AcDbEntity
  8
LAY-1
  6
CONTINUOUS
 62
     7
100
AcDbVertex
100
AcDb2dVertex
 10
699.66417
 20
113.73524
 30
0.0
  0
VERTEX
  5
F5
100
AcDbEntity
  8
LAY-1
  6
CONTINUOUS
 62
     7
100
AcDbVertex
100
AcDb2dVertex
 10
699.01617
 20
113.65964
 30
0.0
  0
VERTEX
  5
F6
100
AcDbEntity
  8
LAY-1
  6
CONTINUOUS
 62
     7
100
AcDbVertex
100
AcDb2dVertex
 10
698.34657
 20
113.60564
 30
0.0
  0
VERTEX
  5
F7
100
AcDbEntity
  8
LAY-1
  6
CONTINUOUS
 62
     7
100
AcDbVertex
100
AcDb2dVertex
 10
697.63377
 20
113.57324
 30
0.0
  0
VERTEX
  5
F8
100
AcDbEntity
  8
LAY-1
  6
CONTINUOUS
 62
     7
100
AcDbVertex
100
AcDb2dVertex
 10
696.93177
 20
113.54084
 30
0.0
  0
VERTEX
  5
F9
100
AcDbEntity
  8
LAY-1
  6
CONTINUOUS
 62
     7
100
AcDbVertex
100
AcDb2dVertex
 10
696.19737
 20
113.54084
 30
0.0
  0
VERTEX
  5
FA
100
AcDbEntity
  8
LAY-1
  6
CONTINUOUS
 62
     7
100
AcDbVertex
100
AcDb2dVertex
 10
695.59257
 20
113.54084
 30
0.0
  0
VERTEX
  5
FB
100
AcDbEntity
  8
LAY-1
  6
CONTINUOUS
 62
     7
100
AcDbVertex
100
AcDb2dVertex
 10
695.00937
 20
113.55164
 30
0.0
  0
VERTEX
  5
FC
100
AcDbEntity
  8
LAY-1
  6
CONTINUOUS
 62
     7
100
AcDbVertex
100
AcDb2dVertex
 10
694.43697
 20
113.57324
 30
0.0
  0
VERTEX
  5
FD
100
AcDbEntity
  8
LAY-1
  6
CONTINUOUS
 62
     7
100
AcDbVertex
100
AcDb2dVertex
 10
693.88617
 20
113.60564
 30
0.0
  0
VERTEX
  5
FE
100
AcDbEntity
  8
LAY-1
  6
CONTINUOUS
 62
     7
100
AcDbVertex
100
AcDb2dVertex
 10
693.34617
 20
113.63804
 30
0.0
  0
VERTEX
  5
FF
100
AcDbEntity
  8
LAY-1
  6
CONTINUOUS
 62
     7
100
AcDbVertex
100
AcDb2dVertex
 10
692.83857
 20
113.68124
 30
0.0
  0
VERTEX
  5
100
100
AcDbEntity
  8
LAY-1
  6
CONTINUOUS
 62
     7
100
AcDbVertex
100
AcDb2dVertex
 10
692.34177
 20
113.73524
 30
0.0
  0
VERTEX
  5
101
100
AcDbEntity
  8
LAY-1
  6
CONTINUOUS
 62
     7
100
AcDbVertex
100
AcDb2dVertex
 10
691.86657
 20
113.78924
 30
0.0
  0
VERTEX
  5
102
100
AcDbEntity
  8
LAY-1
  6
CONTINUOUS
 62
     7
100
AcDbVertex
100
AcDb2dVertex
 10
691.40217
 20
113.86484
 30
0.0
  0
VERTEX
  5
103
100
AcDbEntity
  8
LAY-1
  6
CONTINUOUS
 62
     7
100
AcDbVertex
100
AcDb2dVertex
 10
690.97017
 20
113.94044
 30
0.0
  0
VERTEX
  5
104
100
AcDbEntity
  8
LAY-1
  6
CONTINUOUS
 62
     7
100
AcDbVertex
100
AcDb2dVertex
 10
690.54897
 20
114.02684
 30
0.0
  0
VERTEX
  5
105
100
AcDbEntity
  8
LAY-1
  6
CONTINUOUS
 62
     7
100
AcDbVertex
100
AcDb2dVertex
 10
690.13857
 20
114.11324
 30
0.0
  0
VERTEX
  5
106
100
AcDbEntity
  8
LAY-1
  6
CONTINUOUS
 62
     7
100
AcDbVertex
100
AcDb2dVertex
 10
689.76057
 20
114.21044
 30
0.0
  0
VERTEX
  5
107
100
AcDbEntity
  8
LAY-1
  6
CONTINUOUS
 62
     7
100
AcDbVertex
100
AcDb2dVertex
 10
689.39337
 20
114.31844
 30
0.0
  0
VERTEX
  5
108
100
AcDbEntity
  8
LAY-1
  6
CONTINUOUS
 62
     7
100
AcDbVertex
100
AcDb2dVertex
 10
689.03697
 20
114.43724
 30
0.0
  0
VERTEX
  5
109
100
AcDbEntity
  8
LAY-1
  6
CONTINUOUS
 62
     7
100
AcDbVertex
100
AcDb2dVertex
 10
688.71297
 20
114.56684
 30
0.0
  0
VERTEX
  5
10A
100
AcDbEntity
  8
LAY-1
  6
CONTINUOUS
 62
     7
100
AcDbVertex
100
AcDb2dVertex
 10
688.39977
 20
114.69644
 30
0.0
  0
VERTEX
  5
10B
100
AcDbEntity
  8
LAY-1
  6
CONTINUOUS
 62
     7
100
AcDbVertex
100
AcDb2dVertex
 10
688.08657
 20
114.83684
 30
0.0
  0
VERTEX
  5
10C
100
AcDbEntity
  8
LAY-1
  6
CONTINUOUS
 62
     7
100
AcDbVertex
100
AcDb2dVertex
 10
687.81657
 20
114.97724
 30
0.0
  0
VERTEX
  5
10D
100
AcDbEntity
  8
LAY-1
  6
CONTINUOUS
 62
     7
100
AcDbVertex
100
AcDb2dVertex
 10
687.52497
 20
115.12844
 30
0.0
  0
VERTEX
  5
10E
100
AcDbEntity
  8
LAY-1
  6
CONTINUOUS
 62
     7
100
AcDbVertex
100
AcDb2dVertex
 10
687.27657
 20
115.30124
 30
0.0
  0
VERTEX
  5
10F
100
AcDbEntity
  8
LAY-1
  6
CONTINUOUS
 62
     7
100
AcDbVertex
100
AcDb2dVertex
 10
687.03897
 20
115.46324
 30
0.0
  0
VERTEX
  5
110
100
AcDbEntity
  8
LAY-1
  6
CONTINUOUS
 62
     7
100
AcDbVertex
100
AcDb2dVertex
 10
686.82297
 20
115.64684
 30
0.0
  0
VERTEX
  5
111
100
AcDbEntity
  8
LAY-1
  6
CONTINUOUS
 62
     7
100
AcDbVertex
100
AcDb2dVertex
 10
686.59617
 20
115.83044
 30
0.0
  0
VERTEX
  5
112
100
AcDbEntity
  8
LAY-1
  6
CONTINUOUS
 62
     7
100
AcDbVertex
100
AcDb2dVertex
 10
686.40177
 20
116.02484
 30
0.0
  0
VERTEX
  5
113
100
AcDbEntity
  8
LAY-1
  6
CONTINUOUS
 62
     7
100
AcDbVertex
100
AcDb2dVertex
 10
686.21817
 20
116.21924
 30
0.0
  0
VERTEX
  5
114
100
AcDbEntity
  8
LAY-1
  6
CONTINUOUS
 62
     7
100
AcDbVertex
100
AcDb2dVertex
 10
686.04537
 20
116.43524
 30
0.0
  0
VERTEX
  5
115
100
AcDbEntity
  8
LAY-1
  6
CONTINUOUS
 62
     7
100
AcDbVertex
100
AcDb2dVertex
 10
685.88337
 20
116.65124
 30
0.0
  0
VERTEX
  5
116
100
AcDbEntity
  8
LAY-1
  6
CONTINUOUS
 62
     7
100
AcDbVertex
100
AcDb2dVertex
 10
685.75377
 20
116.86724
 30
0.0
  0
VERTEX
  5
117
100
AcDbEntity
  8
LAY-1
  6
CONTINUOUS
 62
     7
100
AcDbVertex
100
AcDb2dVertex
 10
685.62417
 20
117.10484
 30
0.0
  0
VERTEX
  5
118
100
AcDbEntity
  8
LAY-1
  6
CONTINUOUS
 62
     7
100
AcDbVertex
100
AcDb2dVertex
 10
685.51617
 20
117.34244
 30
0.0
  0
VERTEX
  5
119
100
AcDbEntity
  8
LAY-1
  6
CONTINUOUS
 62
     7
100
AcDbVertex
100
AcDb2dVertex
 10
685.41897
 20
117.59084
 30
0.0
  0
SEQEND
  5
11A
100
AcDbEntity
  8
LAY-1
  6
CONTINUOUS
 62
     7
  0
POLYLINE
  5
11B
100
AcDbEntity
  8
LAY-1
  6
CONTINUOUS
 62
     7
100
AcDb2dPolyline
 66
     1
 10
0.0
 20
0.0
 30
0.0
 70
   128
  0
VERTEX
  5
11C
100
AcDbEntity
  8
LAY-1
  6
CONTINUOUS
 62
     7
100
AcDbVertex
100
AcDb2dVertex
 10
694.17777
 20
119.45924
 30
0.0
  0
VERTEX
  5
11D
100
AcDbEntity
  8
LAY-1
  6
CONTINUOUS
 62
     7
100
AcDbVertex
100
AcDb2dVertex
 10
693.69177
 20
119.52404
 30
0.0
  0
VERTEX
  5
11E
100
AcDbEntity
  8
LAY-1
  6
CONTINUOUS
 62
     7
100
AcDbVertex
100
AcDb2dVertex
 10
693.22737
 20
119.58884
 30
0.0
  0
VERTEX
  5
11F
100
AcDbEntity
  8
LAY-1
  6
CONTINUOUS
 62
     7
100
AcDbVertex
100
AcDb2dVertex
 10
692.78457
 20
119.66444
 30
0.0
  0
VERTEX
  5
120
100
AcDbEntity
  8
LAY-1
  6
CONTINUOUS
 62
     7
100
AcDbVertex
100
AcDb2dVertex
 10
692.35257
 20
119.72924
 30
0.0
  0
VERTEX
  5
121
100
AcDbEntity
  8
LAY-1
  6
CONTINUOUS
 62
     7
100
AcDbVertex
100
AcDb2dVertex
 10
691.96377
 20
119.78324
 30
0.0
  0
VERTEX
  5
122
100
AcDbEntity
  8
LAY-1
  6
CONTINUOUS
 62
     7
100
AcDbVertex
100
AcDb2dVertex
 10
691.59657
 20
119.85884
 30
0.0
  0
VERTEX
  5
123
100
AcDbEntity
  8
LAY-1
  6
CONTINUOUS
 62
     7
100
AcDbVertex
100
AcDb2dVertex
 10
691.24017
 20
119.90204
 30
0.0
  0
VERTEX
  5
124
100
AcDbEntity
  8
LAY-1
  6
CONTINUOUS
 62
     7
100
AcDbVertex
100
AcDb2dVertex
 10
690.91617
 20
119.96684
 30
0.0
  0
VERTEX
  5
125
100
AcDbEntity
  8
LAY-1
  6
CONTINUOUS
 62
     7
100
AcDbVertex
100
AcDb2dVertex
 10
690.60297
 20
120.03164
 30
0.0
  0
VERTEX
  5
126
100
AcDbEntity
  8
LAY-1
  6
CONTINUOUS
 62
     7
100
AcDbVertex
100
AcDb2dVertex
 10
690.31137
 20
120.08564
 30
0.0
  0
VERTEX
  5
127
100
AcDbEntity
  8
LAY-1
  6
CONTINUOUS
 62
     7
100
AcDbVertex
100
AcDb2dVertex
 10
690.06297
 20
120.13964
 30
0.0
  0
VERTEX
  5
128
100
AcDbEntity
  8
LAY-1
  6
CONTINUOUS
 62
     7
100
AcDbVertex
100
AcDb2dVertex
 10
689.82537
 20
120.19364
 30
0.0
  0
VERTEX
  5
129
100
AcDbEntity
  8
LAY-1
  6
CONTINUOUS
 62
     7
100
AcDbVertex
100
AcDb2dVertex
 10
689.39337
 20
120.31244
 30
0.0
  0
VERTEX
  5
12A
100
AcDbEntity
  8
LAY-1
  6
CONTINUOUS
 62
     7
100
AcDbVertex
100
AcDb2dVertex
 10
688.98297
 20
120.43124
 30
0.0
  0
VERTEX
  5
12B
100
AcDbEntity
  8
LAY-1
  6
CONTINUOUS
 62
     7
100
AcDbVertex
100
AcDb2dVertex
 10
688.57257
 20
120.56084
 30
0.0
  0
VERTEX
  5
12C
100
AcDbEntity
  8
LAY-1
  6
CONTINUOUS
 62
     7
100
AcDbVertex
100
AcDb2dVertex
 10
688.21617
 20
120.71204
 30
0.0
  0
VERTEX
  5
12D
100
AcDbEntity
  8
LAY-1
  6
CONTINUOUS
 62
     7
100
AcDbVertex
100
AcDb2dVertex
 10
687.90297
 20
120.87404
 30
0.0
  0
VERTEX
  5
12E
100
AcDbEntity
  8
LAY-1
  6
CONTINUOUS
 62
     7
100
AcDbVertex
100
AcDb2dVertex
 10
687.58977
 20
121.02524
 30
0.0
  0
VERTEX
  5
12F
100
AcDbEntity
  8
LAY-1
  6
CONTINUOUS
 62
     7
100
AcDbVertex
100
AcDb2dVertex
 10
687.31977
 20
121.20884
 30
0.0
  0
VERTEX
  5
130
100
AcDbEntity
  8
LAY-1
  6
CONTINUOUS
 62
     7
100
AcDbVertex
100
AcDb2dVertex
 10
687.06057
 20
121.40324
 30
0.0
  0
VERTEX
  5
131
100
AcDbEntity
  8
LAY-1
  6
CONTINUOUS
 62
     7
100
AcDbVertex
100
AcDb2dVertex
 10
686.85537
 20
121.58684
 30
0.0
  0
VERTEX
  5
132
100
AcDbEntity
  8
LAY-1
  6
CONTINUOUS
 62
     7
100
AcDbVertex
100
AcDb2dVertex
 10
686.65017
 20
121.79204
 30
0.0
  0
VERTEX
  5
133
100
AcDbEntity
  8
LAY-1
  6
CONTINUOUS
 62
     7
100
AcDbVertex
100
AcDb2dVertex
 10
686.48817
 20
121.98644
 30
0.0
  0
VERTEX
  5
134
100
AcDbEntity
  8
LAY-1
  6
CONTINUOUS
 62
     7
100
AcDbVertex
100
AcDb2dVertex
 10
686.36937
 20
122.20244
 30
0.0
  0
VERTEX
  5
135
100
AcDbEntity
  8
LAY-1
  6
CONTINUOUS
 62
     7
100
AcDbVertex
100
AcDb2dVertex
 10
686.26137
 20
122.41844
 30
0.0
  0
VERTEX
  5
136
100
AcDbEntity
  8
LAY-1
  6
CONTINUOUS
 62
     7
100
AcDbVertex
100
AcDb2dVertex
 10
686.19657
 20
122.63444
 30
0.0
  0
VERTEX
  5
137
100
AcDbEntity
  8
LAY-1
  6
CONTINUOUS
 62
     7
100
AcDbVertex
100
AcDb2dVertex
 10
686.15337
 20
122.86124
 30
0.0
  0
VERTEX
  5
138
100
AcDbEntity
  8
LAY-1
  6
CONTINUOUS
 62
     7
100
AcDbVertex
100
AcDb2dVertex
 10
686.12097
 20
123.08804
 30
0.0
  0
VERTEX
  5
139
100
AcDbEntity
  8
LAY-1
  6
CONTINUOUS
 62
     7
100
AcDbVertex
100
AcDb2dVertex
 10
686.14257
 20
123.30404
 30
0.0
  0
VERTEX
  5
13A
100
AcDbEntity
  8
LAY-1
  6
CONTINUOUS
 62
     7
100
AcDbVertex
100
AcDb2dVertex
 10
686.17497
 20
123.50924
 30
0.0
  0
VERTEX
  5
13B
100
AcDbEntity
  8
LAY-1
  6
CONTINUOUS
 62
     7
100
AcDbVertex
100
AcDb2dVertex
 10
686.25057
 20
123.70364
 30
0.0
  0
VERTEX
  5
13C
100
AcDbEntity
  8
LAY-1
  6
CONTINUOUS
 62
     7
100
AcDbVertex
100
AcDb2dVertex
 10
686.32617
 20
123.90884
 30
0.0
  0
VERTEX
  5
13D
100
AcDbEntity
  8
LAY-1
  6
CONTINUOUS
 62
     7
100
AcDbVertex
100
AcDb2dVertex
 10
686.42337
 20
124.09244
 30
0.0
  0
VERTEX
  5
13E
100
AcDbEntity
  8
LAY-1
  6
CONTINUOUS
 62
     7
100
AcDbVertex
100
AcDb2dVertex
 10
686.56377
 20
124.28684
 30
0.0
  0
VERTEX
  5
13F
100
AcDbEntity
  8
LAY-1
  6
CONTINUOUS
 62
     7
100
AcDbVertex
100
AcDb2dVertex
 10
686.72577
 20
124.47044
 30
0.0
  0
VERTEX
  5
140
100
AcDbEntity
  8
LAY-1
  6
CONTINUOUS
 62
     7
100
AcDbVertex
100
AcDb2dVertex
 10
686.89857
 20
124.65404
 30
0.0
  0
VERTEX
  5
141
100
AcDbEntity
  8
LAY-1
  6
CONTINUOUS
 62
     7
100
AcDbVertex
100
AcDb2dVertex
 10
687.10377
 20
124.82684
 30
0.0
  0
VERTEX
  5
142
100
AcDbEntity
  8
LAY-1
  6
CONTINUOUS
 62
     7
100
AcDbVertex
100
AcDb2dVertex
 10
687.31977
 20
124.99964
 30
0.0
  0
VERTEX
  5
143
100
AcDbEntity
  8
LAY-1
  6
CONTINUOUS
 62
     7
100
AcDbVertex
100
AcDb2dVertex
 10
687.55737
 20
125.15084
 30
0.0
  0
VERTEX
  5
144
100
AcDbEntity
  8
LAY-1
  6
CONTINUOUS
 62
     7
100
AcDbVertex
100
AcDb2dVertex
 10
687.81657
 20
125.31284
 30
0.0
  0
VERTEX
  5
145
100
AcDbEntity
  8
LAY-1
  6
CONTINUOUS
 62
     7
100
AcDbVertex
100
AcDb2dVertex
 10
688.08657
 20
125.46404
 30
0.0
  0
VERTEX
  5
146
100
AcDbEntity
  8
LAY-1
  6
CONTINUOUS
 62
     7
100
AcDbVertex
100
AcDb2dVertex
 10
688.37817
 20
125.59364
 30
0.0
  0
VERTEX
  5
147
100
AcDbEntity
  8
LAY-1
  6
CONTINUOUS
 62
     7
100
AcDbVertex
100
AcDb2dVertex
 10
688.68057
 20
125.72324
 30
0.0
  0
VERTEX
  5
148
100
AcDbEntity
  8
LAY-1
  6
CONTINUOUS
 62
     7
100
AcDbVertex
100
AcDb2dVertex
 10
689.00457
 20
125.84204
 30
0.0
  0
VERTEX
  5
149
100
AcDbEntity
  8
LAY-1
  6
CONTINUOUS
 62
     7
100
AcDbVertex
100
AcDb2dVertex
 10
689.26377
 20
125.93924
 30
0.0
  0
VERTEX
  5
14A
100
AcDbEntity
  8
LAY-1
  6
CONTINUOUS
 62
     7
100
AcDbVertex
100
AcDb2dVertex
 10
689.54457
 20
126.02564
 30
0.0
  0
VERTEX
  5
14B
100
AcDbEntity
  8
LAY-1
  6
CONTINUOUS
 62
     7
100
AcDbVertex
100
AcDb2dVertex
 10
689.85777
 20
126.11204
 30
0.0
  0
VERTEX
  5
14C
100
AcDbEntity
  8
LAY-1
  6
CONTINUOUS
 62
     7
100
AcDbVertex
100
AcDb2dVertex
 10
690.18177
 20
126.18764
 30
0.0
  0
VERTEX
  5
14D
100
AcDbEntity
  8
LAY-1
  6
CONTINUOUS
 62
     7
100
AcDbVertex
100
AcDb2dVertex
 10
690.52737
 20
126.25244
 30
0.0
  0
VERTEX
  5
14E
100
AcDbEntity
  8
LAY-1
  6
CONTINUOUS
 62
     7
100
AcDbVertex
100
AcDb2dVertex
 10
690.91617
 20
126.32804
 30
0.0
  0
VERTEX
  5
14F
100
AcDbEntity
  8
LAY-1
  6
CONTINUOUS
 62
     7
100
AcDbVertex
100
AcDb2dVertex
 10
691.30497
 20
126.40364
 30
0.0
  0
VERTEX
  5
150
100
AcDbEntity
  8
LAY-1
  6
CONTINUOUS
 62
     7
100
AcDbVertex
100
AcDb2dVertex
 10
691.71537
 20
126.46844
 30
0.0
  0
VERTEX
  5
151
100
AcDbEntity
  8
LAY-1
  6
CONTINUOUS
 62
     7
100
AcDbVertex
100
AcDb2dVertex
 10
692.16897
 20
126.52244
 30
0.0
  0
VERTEX
  5
152
100
AcDbEntity
  8
LAY-1
  6
CONTINUOUS
 62
     7
100
AcDbVertex
100
AcDb2dVertex
 10
692.60097
 20
126.58724
 30
0.0
  0
VERTEX
  5
153
100
AcDbEntity
  8
LAY-1
  6
CONTINUOUS
 62
     7
100
AcDbVertex
100
AcDb2dVertex
 10
693.05457
 20
126.63044
 30
0.0
  0
VERTEX
  5
154
100
AcDbEntity
  8
LAY-1
  6
CONTINUOUS
 62
     7
100
AcDbVertex
100
AcDb2dVertex
 10
693.50817
 20
126.66284
 30
0.0
  0
VERTEX
  5
155
100
AcDbEntity
  8
LAY-1
  6
CONTINUOUS
 62
     7
100
AcDbVertex
100
AcDb2dVertex
 10
693.97257
 20
126.69524
 30
0.0
  0
VERTEX
  5
156
100
AcDbEntity
  8
LAY-1
  6
CONTINUOUS
 62
     7
100
AcDbVertex
100
AcDb2dVertex
 10
694.43697
 20
126.70604
 30
0.0
  0
VERTEX
  5
157
100
AcDbEntity
  8
LAY-1
  6
CONTINUOUS
 62
     7
100
AcDbVertex
100
AcDb2dVertex
 10
694.93377
 20
126.71684
 30
0.0
  0
VERTEX
  5
158
100
AcDbEntity
  8
LAY-1
  6
CONTINUOUS
 62
     7
100
AcDbVertex
100
AcDb2dVertex
 10
695.40897
 20
126.71684
 30
0.0
  0
VERTEX
  5
159
100
AcDbEntity
  8
LAY-1
  6
CONTINUOUS
 62
     7
100
AcDbVertex
100
AcDb2dVertex
 10
696.14337
 20
126.71684
 30
0.0
  0
VERTEX
  5
15A
100
AcDbEntity
  8
LAY-1
  6
CONTINUOUS
 62
     7
100
AcDbVertex
100
AcDb2dVertex
 10
696.85617
 20
126.70604
 30
0.0
  0
VERTEX
  5
15B
100
AcDbEntity
  8
LAY-1
  6
CONTINUOUS
 62
     7
100
AcDbVertex
100
AcDb2dVertex
 10
697.54737
 20
126.67364
 30
0.0
  0
VERTEX
  5
15C
100
AcDbEntity
  8
LAY-1
  6
CONTINUOUS
 62
     7
100
AcDbVertex
100
AcDb2dVertex
 10
698.20617
 20
126.61964
 30
0.0
  0
VERTEX
  5
15D
100
AcDbEntity
  8
LAY-1
  6
CONTINUOUS
 62
     7
100
AcDbVertex
100
AcDb2dVertex
 10
698.84337
 20
126.56564
 30
0.0
  0
VERTEX
  5
15E
100
AcDbEntity
  8
LAY-1
  6
CONTINUOUS
 62
     7
100
AcDbVertex
100
AcDb2dVertex
 10
699.45897
 20
126.49004
 30
0.0
  0
VERTEX
  5
15F
100
AcDbEntity
  8
LAY-1
  6
CONTINUOUS
 62
     7
100
AcDbVertex
100
AcDb2dVertex
 10
700.05297
 20
126.40364
 30
0.0
  0
VERTEX
  5
160
100
AcDbEntity
  8
LAY-1
  6
CONTINUOUS
 62
     7
100
AcDbVertex
100
AcDb2dVertex
 10
700.61457
 20
126.29564
 30
0.0
  0
VERTEX
  5
161
100
AcDbEntity
  8
LAY-1
  6
CONTINUOUS
 62
     7
100
AcDbVertex
100
AcDb2dVertex
 10
701.16537
 20
126.18764
 30
0.0
  0
VERTEX
  5
162
100
AcDbEntity
  8
LAY-1
  6
CONTINUOUS
 62
     7
100
AcDbVertex
100
AcDb2dVertex
 10
701.66217
 20
126.06884
 30
0.0
  0
VERTEX
  5
163
100
AcDbEntity
  8
LAY-1
  6
CONTINUOUS
 62
     7
100
AcDbVertex
100
AcDb2dVertex
 10
702.14817
 20
125.93924
 30
0.0
  0
VERTEX
  5
164
100
AcDbEntity
  8
LAY-1
  6
CONTINUOUS
 62
     7
100
AcDbVertex
100
AcDb2dVertex
 10
702.58017
 20
125.79884
 30
0.0
  0
VERTEX
  5
165
100
AcDbEntity
  8
LAY-1
  6
CONTINUOUS
 62
     7
100
AcDbVertex
100
AcDb2dVertex
 10
702.96897
 20
125.64764
 30
0.0
  0
VERTEX
  5
166
100
AcDbEntity
  8
LAY-1
  6
CONTINUOUS
 62
     7
100
AcDbVertex
100
AcDb2dVertex
 10
703.32537
 20
125.48564
 30
0.0
  0
VERTEX
  5
167
100
AcDbEntity
  8
LAY-1
  6
CONTINUOUS
 62
     7
100
AcDbVertex
100
AcDb2dVertex
 10
703.66017
 20
125.31284
 30
0.0
  0
VERTEX
  5
168
100
AcDbEntity
  8
LAY-1
  6
CONTINUOUS
 62
     7
100
AcDbVertex
100
AcDb2dVertex
 10
703.94097
 20
125.14004
 30
0.0
  0
VERTEX
  5
169
100
AcDbEntity
  8
LAY-1
  6
CONTINUOUS
 62
     7
100
AcDbVertex
100
AcDb2dVertex
 10
704.18937
 20
124.94564
 30
0.0
  0
VERTEX
  5
16A
100
AcDbEntity
  8
LAY-1
  6
CONTINUOUS
 62
     7
100
AcDbVertex
100
AcDb2dVertex
 10
704.42697
 20
124.74044
 30
0.0
  0
VERTEX
  5
16B
100
AcDbEntity
  8
LAY-1
  6
CONTINUOUS
 62
     7
100
AcDbVertex
100
AcDb2dVertex
 10
704.64297
 20
124.52444
 30
0.0
  0
VERTEX
  5
16C
100
AcDbEntity
  8
LAY-1
  6
CONTINUOUS
 62
     7
100
AcDbVertex
100
AcDb2dVertex
 10
704.83737
 20
124.28684
 30
0.0
  0
VERTEX
  5
16D
100
AcDbEntity
  8
LAY-1
  6
CONTINUOUS
 62
     7
100
AcDbVertex
100
AcDb2dVertex
 10
705.01017
 20
124.03844
 30
0.0
  0
VERTEX
  5
16E
100
AcDbEntity
  8
LAY-1
  6
CONTINUOUS
 62
     7
100
AcDbVertex
100
AcDb2dVertex
 10
705.17217
 20
123.76844
 30
0.0
  0
VERTEX
  5
16F
100
AcDbEntity
  8
LAY-1
  6
CONTINUOUS
 62
     7
100
AcDbVertex
100
AcDb2dVertex
 10
705.31257
 20
123.48764
 30
0.0
  0
VERTEX
  5
170
100
AcDbEntity
  8
LAY-1
  6
CONTINUOUS
 62
     7
100
AcDbVertex
100
AcDb2dVertex
 10
705.40977
 20
123.17444
 30
0.0
  0
VERTEX
  5
171
100
AcDbEntity
  8
LAY-1
  6
CONTINUOUS
 62
     7
100
AcDbVertex
100
AcDb2dVertex
 10
701.23017
 20
122.90444
 30
0.0
  0
VERTEX
  5
172
100
AcDbEntity
  8
LAY-1
  6
CONTINUOUS
 62
     7
100
AcDbVertex
100
AcDb2dVertex
 10
701.13297
 20
123.13124
 30
0.0
  0
VERTEX
  5
173
100
AcDbEntity
  8
LAY-1
  6
CONTINUOUS
 62
     7
100
AcDbVertex
100
AcDb2dVertex
 10
701.02497
 20
123.35804
 30
0.0
  0
VERTEX
  5
174
100
AcDbEntity
  8
LAY-1
  6
CONTINUOUS
 62
     7
100
AcDbVertex
100
AcDb2dVertex
 10
700.86297
 20
123.56324
 30
0.0
  0
VERTEX
  5
175
100
AcDbEntity
  8
LAY-1
  6
CONTINUOUS
 62
     7
100
AcDbVertex
100
AcDb2dVertex
 10
700.66857
 20
123.76844
 30
0.0
  0
VERTEX
  5
176
100
AcDbEntity
  8
LAY-1
  6
CONTINUOUS
 62
     7
100
AcDbVertex
100
AcDb2dVertex
 10
700.45257
 20
123.95204
 30
0.0
  0
VERTEX
  5
177
100
AcDbEntity
  8
LAY-1
  6
CONTINUOUS
 62
     7
100
AcDbVertex
100
AcDb2dVertex
 10
700.19337
 20
124.11404
 30
0.0
  0
VERTEX
  5
178
100
AcDbEntity
  8
LAY-1
  6
CONTINUOUS
 62
     7
100
AcDbVertex
100
AcDb2dVertex
 10
699.91257
 20
124.27604
 30
0.0
  0
VERTEX
  5
179
100
AcDbEntity
  8
LAY-1
  6
CONTINUOUS
 62
     7
100
AcDbVertex
100
AcDb2dVertex
 10
699.58857
 20
124.42724
 30
0.0
  0
VERTEX
  5
17A
100
AcDbEntity
  8
LAY-1
  6
CONTINUOUS
 62
     7
100
AcDbVertex
100
AcDb2dVertex
 10
699.21057
 20
124.55684
 30
0.0
  0
VERTEX
  5
17B
100
AcDbEntity
  8
LAY-1
  6
CONTINUOUS
 62
     7
100
AcDbVertex
100
AcDb2dVertex
 10
698.83257
 20
124.65404
 30
0.0
  0
VERTEX
  5
17C
100
AcDbEntity
  8
LAY-1
  6
CONTINUOUS
 62
     7
100
AcDbVertex
100
AcDb2dVertex
 10
698.40057
 20
124.75124
 30
0.0
  0
VERTEX
  5
17D
100
AcDbEntity
  8
LAY-1
  6
CONTINUOUS
 62
     7
100
AcDbVertex
100
AcDb2dVertex
 10
697.93617
 20
124.82684
 30
0.0
  0
VERTEX
  5
17E
100
AcDbEntity
  8
LAY-1
  6
CONTINUOUS
 62
     7
100
AcDbVertex
100
AcDb2dVertex
 10
697.43937
 20
124.89164
 30
0.0
  0
VERTEX
  5
17F
100
AcDbEntity
  8
LAY-1
  6
CONTINUOUS
 62
     7
100
AcDbVertex
100
AcDb2dVertex
 10
696.89937
 20
124.93484
 30
0.0
  0
VERTEX
  5
180
100
AcDbEntity
  8
LAY-1
  6
CONTINUOUS
 62
     7
100
AcDbVertex
100
AcDb2dVertex
 10
696.32697
 20
124.96724
 30
0.0
  0
VERTEX
  5
181
100
AcDbEntity
  8
LAY-1
  6
CONTINUOUS
 62
     7
100
AcDbVertex
100
AcDb2dVertex
 10
695.73297
 20
124.96724
 30
0.0
  0
VERTEX
  5
182
100
AcDbEntity
  8
LAY-1
  6
CONTINUOUS
 62
     7
100
AcDbVertex
100
AcDb2dVertex
 10
695.00937
 20
124.96724
 30
0.0
  0
VERTEX
  5
183
100
AcDbEntity
  8
LAY-1
  6
CONTINUOUS
 62
     7
100
AcDbVertex
100
AcDb2dVertex
 10
694.36137
 20
124.93484
 30
0.0
  0
VERTEX
  5
184
100
AcDbEntity
  8
LAY-1
  6
CONTINUOUS
 62
     7
100
AcDbVertex
100
AcDb2dVertex
 10
693.75657
 20
124.90244
 30
0.0
  0
VERTEX
  5
185
100
AcDbEntity
  8
LAY-1
  6
CONTINUOUS
 62
     7
100
AcDbVertex
100
AcDb2dVertex
 10
693.19497
 20
124.84844
 30
0.0
  0
VERTEX
  5
186
100
AcDbEntity
  8
LAY-1
  6
CONTINUOUS
 62
     7
100
AcDbVertex
100
AcDb2dVertex
 10
692.69817
 20
124.77284
 30
0.0
  0
VERTEX
  5
187
100
AcDbEntity
  8
LAY-1
  6
CONTINUOUS
 62
     7
100
AcDbVertex
100
AcDb2dVertex
 10
692.24457
 20
124.68644
 30
0.0
  0
VERTEX
  5
188
100
AcDbEntity
  8
LAY-1
  6
CONTINUOUS
 62
     7
100
AcDbVertex
100
AcDb2dVertex
 10
691.86657
 20
124.60004
 30
0.0
  0
VERTEX
  5
189
100
AcDbEntity
  8
LAY-1
  6
CONTINUOUS
 62
     7
100
AcDbVertex
100
AcDb2dVertex
 10
691.52097
 20
124.48124
 30
0.0
  0
VERTEX
  5
18A
100
AcDbEntity
  8
LAY-1
  6
CONTINUOUS
 62
     7
100
AcDbVertex
100
AcDb2dVertex
 10
691.22937
 20
124.35164
 30
0.0
  0
VERTEX
  5
18B
100
AcDbEntity
  8
LAY-1
  6
CONTINUOUS
 62
     7
100
AcDbVertex
100
AcDb2dVertex
 10
690.97017
 20
124.22204
 30
0.0
  0
VERTEX
  5
18C
100
AcDbEntity
  8
LAY-1
  6
CONTINUOUS
 62
     7
100
AcDbVertex
100
AcDb2dVertex
 10
690.75417
 20
124.08164
 30
0.0
  0
VERTEX
  5
18D
100
AcDbEntity
  8
LAY-1
  6
CONTINUOUS
 62
     7
100
AcDbVertex
100
AcDb2dVertex
 10
690.58137
 20
123.95204
 30
0.0
  0
VERTEX
  5
18E
100
AcDbEntity
  8
LAY-1
  6
CONTINUOUS
 62
     7
100
AcDbVertex
100
AcDb2dVertex
 10
690.44097
 20
123.80084
 30
0.0
  0
VERTEX
  5
18F
100
AcDbEntity
  8
LAY-1
  6
CONTINUOUS
 62
     7
100
AcDbVertex
100
AcDb2dVertex
 10
690.34377
 20
123.64964
 30
0.0
  0
VERTEX
  5
190
100
AcDbEntity
  8
LAY-1
  6
CONTINUOUS
 62
     7
100
AcDbVertex
100
AcDb2dVertex
 10
690.27897
 20
123.50924
 30
0.0
  0
VERTEX
  5
191
100
AcDbEntity
  8
LAY-1
  6
CONTINUOUS
 62
     7
100
AcDbVertex
100
AcDb2dVertex
 10
690.25737
 20
123.34724
 30
0.0
  0
VERTEX
  5
192
100
AcDbEntity
  8
LAY-1
  6
CONTINUOUS
 62
     7
100
AcDbVertex
100
AcDb2dVertex
 10
690.27897
 20
123.22844
 30
0.0
  0
VERTEX
  5
193
100
AcDbEntity
  8
LAY-1
  6
CONTINUOUS
 62
     7
100
AcDbVertex
100
AcDb2dVertex
 10
690.28977
 20
123.13124
 30
0.0
  0
VERTEX
  5
194
100
AcDbEntity
  8
LAY-1
  6
CONTINUOUS
 62
     7
100
AcDbVertex
100
AcDb2dVertex
 10
690.34377
 20
123.03404
 30
0.0
  0
SEQEND
  5
195
100
AcDbEntity
  8
LAY-1
  6
CONTINUOUS
 62
     7
  0
POLYLINE
  5
196
100
AcDbEntity
  8
LAY-1
  6
CONTINUOUS
 62
     7
100
AcDb2dPolyline
 66
     1
 10
0.0
 20
0.0
 30
0.0
 70
   128
  0
VERTEX
  5
197
100
AcDbEntity
  8
LAY-1
  6
CONTINUOUS
 62
     7
100
AcDbVertex
100
AcDb2dVertex
 10
685.41897
 20
117.59084
 30
0.0
  0
VERTEX
  5
198
100
AcDbEntity
  8
LAY-1
  6
CONTINUOUS
 62
     7
100
AcDbVertex
100
AcDb2dVertex
 10
689.64177
 20
117.92564
 30
0.0
  0
VERTEX
  5
199
100
AcDbEntity
  8
LAY-1
  6
CONTINUOUS
 62
     7
100
AcDbVertex
100
AcDb2dVertex
 10
689.76057
 20
117.61244
 30
0.0
  0
VERTEX
  5
19A
100
AcDbEntity
  8
LAY-1
  6
CONTINUOUS
 62
     7
100
AcDbVertex
100
AcDb2dVertex
 10
689.91177
 20
117.32084
 30
0.0
  0
VERTEX
  5
19B
100
AcDbEntity
  8
LAY-1
  6
CONTINUOUS
 62
     7
100
AcDbVertex
100
AcDb2dVertex
 10
690.08457
 20
117.05084
 30
0.0
  0
VERTEX
  5
19C
100
AcDbEntity
  8
LAY-1
  6
CONTINUOUS
 62
     7
100
AcDbVertex
100
AcDb2dVertex
 10
690.31137
 20
116.79164
 30
0.0
  0
VERTEX
  5
19D
100
AcDbEntity
  8
LAY-1
  6
CONTINUOUS
 62
     7
100
AcDbVertex
100
AcDb2dVertex
 10
690.58137
 20
116.56484
 30
0.0
  0
VERTEX
  5
19E
100
AcDbEntity
  8
LAY-1
  6
CONTINUOUS
 62
     7
100
AcDbVertex
100
AcDb2dVertex
 10
690.90537
 20
116.34884
 30
0.0
  0
VERTEX
  5
19F
100
AcDbEntity
  8
LAY-1
  6
CONTINUOUS
 62
     7
100
AcDbVertex
100
AcDb2dVertex
 10
691.24017
 20
116.15444
 30
0.0
  0
VERTEX
  5
1A0
100
AcDbEntity
  8
LAY-1
  6
CONTINUOUS
 62
     7
100
AcDbVertex
100
AcDb2dVertex
 10
691.63977
 20
115.98164
 30
0.0
  0
VERTEX
  5
1A1
100
AcDbEntity
  8
LAY-1
  6
CONTINUOUS
 62
     7
100
AcDbVertex
100
AcDb2dVertex
 10
692.06097
 20
115.80884
 30
0.0
  0
VERTEX
  5
1A2
100
AcDbEntity
  8
LAY-1
  6
CONTINUOUS
 62
     7
100
AcDbVertex
100
AcDb2dVertex
 10
692.51457
 20
115.66844
 30
0.0
  0
VERTEX
  5
1A3
100
AcDbEntity
  8
LAY-1
  6
CONTINUOUS
 62
     7
100
AcDbVertex
100
AcDb2dVertex
 10
693.03297
 20
115.57124
 30
0.0
  0
VERTEX
  5
1A4
100
AcDbEntity
  8
LAY-1
  6
CONTINUOUS
 62
     7
100
AcDbVertex
100
AcDb2dVertex
 10
693.58377
 20
115.46324
 30
0.0
  0
VERTEX
  5
1A5
100
AcDbEntity
  8
LAY-1
  6
CONTINUOUS
 62
     7
100
AcDbVertex
100
AcDb2dVertex
 10
694.16697
 20
115.38764
 30
0.0
  0
VERTEX
  5
1A6
100
AcDbEntity
  8
LAY-1
  6
CONTINUOUS
 62
     7
100
AcDbVertex
100
AcDb2dVertex
 10
694.80417
 20
115.33364
 30
0.0
  0
VERTEX
  5
1A7
100
AcDbEntity
  8
LAY-1
  6
CONTINUOUS
 62
     7
100
AcDbVertex
100
AcDb2dVertex
 10
695.46297
 20
115.30124
 30
0.0
  0
VERTEX
  5
1A8
100
AcDbEntity
  8
LAY-1
  6
CONTINUOUS
 62
     7
100
AcDbVertex
100
AcDb2dVertex
 10
696.17577
 20
115.30124
 30
0.0
  0
VERTEX
  5
1A9
100
AcDbEntity
  8
LAY-1
  6
CONTINUOUS
 62
     7
100
AcDbVertex
100
AcDb2dVertex
 10
696.88857
 20
115.30124
 30
0.0
  0
VERTEX
  5
1AA
100
AcDbEntity
  8
LAY-1
  6
CONTINUOUS
 62
     7
100
AcDbVertex
100
AcDb2dVertex
 10
697.54737
 20
115.33364
 30
0.0
  0
VERTEX
  5
1AB
100
AcDbEntity
  8
LAY-1
  6
CONTINUOUS
 62
     7
100
AcDbVertex
100
AcDb2dVertex
 10
698.16297
 20
115.38764
 30
0.0
  0
VERTEX
  5
1AC
100
AcDbEntity
  8
LAY-1
  6
CONTINUOUS
 62
     7
100
AcDbVertex
100
AcDb2dVertex
 10
698.73537
 20
115.44164
 30
0.0
  0
VERTEX
  5
1AD
100
AcDbEntity
  8
LAY-1
  6
CONTINUOUS
 62
     7
100
AcDbVertex
100
AcDb2dVertex
 10
699.25377
 20
115.53884
 30
0.0
  0
VERTEX
  5
1AE
100
AcDbEntity
  8
LAY-1
  6
CONTINUOUS
 62
     7
100
AcDbVertex
100
AcDb2dVertex
 10
699.72897
 20
115.64684
 30
0.0
  0
VERTEX
  5
1AF
100
AcDbEntity
  8
LAY-1
  6
CONTINUOUS
 62
     7
100
AcDbVertex
100
AcDb2dVertex
 10
700.15017
 20
115.75484
 30
0.0
  0
VERTEX
  5
1B0
100
AcDbEntity
  8
LAY-1
  6
CONTINUOUS
 62
     7
100
AcDbVertex
100
AcDb2dVertex
 10
700.54977
 20
115.89524
 30
0.0
  0
VERTEX
  5
1B1
100
AcDbEntity
  8
LAY-1
  6
CONTINUOUS
 62
     7
100
AcDbVertex
100
AcDb2dVertex
 10
700.87377
 20
116.04644
 30
0.0
  0
VERTEX
  5
1B2
100
AcDbEntity
  8
LAY-1
  6
CONTINUOUS
 62
     7
100
AcDbVertex
100
AcDb2dVertex
 10
701.16537
 20
116.19764
 30
0.0
  0
VERTEX
  5
1B3
100
AcDbEntity
  8
LAY-1
  6
CONTINUOUS
 62
     7
100
AcDbVertex
100
AcDb2dVertex
 10
701.41377
 20
116.37044
 30
0.0
  0
VERTEX
  5
1B4
100
AcDbEntity
  8
LAY-1
  6
CONTINUOUS
 62
     7
100
AcDbVertex
100
AcDb2dVertex
 10
701.61897
 20
116.54324
 30
0.0
  0
VERTEX
  5
1B5
100
AcDbEntity
  8
LAY-1
  6
CONTINUOUS
 62
     7
100
AcDbVertex
100
AcDb2dVertex
 10
701.75937
 20
116.71604
 30
0.0
  0
VERTEX
  5
1B6
100
AcDbEntity
  8
LAY-1
  6
CONTINUOUS
 62
     7
100
AcDbVertex
100
AcDb2dVertex
 10
701.87817
 20
116.91044
 30
0.0
  0
VERTEX
  5
1B7
100
AcDbEntity
  8
LAY-1
  6
CONTINUOUS
 62
     7
100
AcDbVertex
100
AcDb2dVertex
 10
701.95377
 20
117.10484
 30
0.0
  0
VERTEX
  5
1B8
100
AcDbEntity
  8
LAY-1
  6
CONTINUOUS
 62
     7
100
AcDbVertex
100
AcDb2dVertex
 10
701.96457
 20
117.29924
 30
0.0
  0
VERTEX
  5
1B9
100
AcDbEntity
  8
LAY-1
  6
CONTINUOUS
 62
     7
100
AcDbVertex
100
AcDb2dVertex
 10
701.95377
 20
117.48284
 30
0.0
  0
VERTEX
  5
1BA
100
AcDbEntity
  8
LAY-1
  6
CONTINUOUS
 62
     7
100
AcDbVertex
100
AcDb2dVertex
 10
701.89977
 20
117.65564
 30
0.0
  0
VERTEX
  5
1BB
100
AcDbEntity
  8
LAY-1
  6
CONTINUOUS
 62
     7
100
AcDbVertex
100
AcDb2dVertex
 10
701.79177
 20
117.80684
 30
0.0
  0
VERTEX
  5
1BC
100
AcDbEntity
  8
LAY-1
  6
CONTINUOUS
 62
     7
100
AcDbVertex
100
AcDb2dVertex
 10
701.65137
 20
117.94724
 30
0.0
  0
VERTEX
  5
1BD
100
AcDbEntity
  8
LAY-1
  6
CONTINUOUS
 62
     7
100
AcDbVertex
100
AcDb2dVertex
 10
701.46777
 20
118.09844
 30
0.0
  0
VERTEX
  5
1BE
100
AcDbEntity
  8
LAY-1
  6
CONTINUOUS
 62
     7
100
AcDbVertex
100
AcDb2dVertex
 10
701.25177
 20
118.21724
 30
0.0
  0
VERTEX
  5
1BF
100
AcDbEntity
  8
LAY-1
  6
CONTINUOUS
 62
     7
100
AcDbVertex
100
AcDb2dVertex
 10
701.01417
 20
118.33604
 30
0.0
  0
VERTEX
  5
1C0
100
AcDbEntity
  8
LAY-1
  6
CONTINUOUS
 62
     7
100
AcDbVertex
100
AcDb2dVertex
 10
700.71177
 20
118.44404
 30
0.0
  0
VERTEX
  5
1C1
100
AcDbEntity
  8
LAY-1
  6
CONTINUOUS
 62
     7
100
AcDbVertex
100
AcDb2dVertex
 10
700.59297
 20
118.48724
 30
0.0
  0
VERTEX
  5
1C2
100
AcDbEntity
  8
LAY-1
  6
CONTINUOUS
 62
     7
100
AcDbVertex
100
AcDb2dVertex
 10
700.45257
 20
118.51964
 30
0.0
  0
VERTEX
  5
1C3
100
AcDbEntity
  8
LAY-1
  6
CONTINUOUS
 62
     7
100
AcDbVertex
100
AcDb2dVertex
 10
700.29057
 20
118.55204
 30
0.0
  0
VERTEX
  5
1C4
100
AcDbEntity
  8
LAY-1
  6
CONTINUOUS
 62
     7
100
AcDbVertex
100
AcDb2dVertex
 10
700.09617
 20
118.59524
 30
0.0
  0
VERTEX
  5
1C5
100
AcDbEntity
  8
LAY-1
  6
CONTINUOUS
 62
     7
100
AcDbVertex
100
AcDb2dVertex
 10
699.91257
 20
118.63844
 30
0.0
  0
VERTEX
  5
1C6
100
AcDbEntity
  8
LAY-1
  6
CONTINUOUS
 62
     7
100
AcDbVertex
100
AcDb2dVertex
 10
699.67497
 20
118.68164
 30
0.0
  0
VERTEX
  5
1C7
100
AcDbEntity
  8
LAY-1
  6
CONTINUOUS
 62
     7
100
AcDbVertex
100
AcDb2dVertex
 10
699.44817
 20
118.72484
 30
0.0
  0
VERTEX
  5
1C8
100
AcDbEntity
  8
LAY-1
  6
CONTINUOUS
 62
     7
100
AcDbVertex
100
AcDb2dVertex
 10
699.17817
 20
118.77884
 30
0.0
  0
VERTEX
  5
1C9
100
AcDbEntity
  8
LAY-1
  6
CONTINUOUS
 62
     7
100
AcDbVertex
100
AcDb2dVertex
 10
698.89737
 20
118.81124
 30
0.0
  0
VERTEX
  5
1CA
100
AcDbEntity
  8
LAY-1
  6
CONTINUOUS
 62
     7
100
AcDbVertex
100
AcDb2dVertex
 10
698.59497
 20
118.85444
 30
0.0
  0
VERTEX
  5
1CB
100
AcDbEntity
  8
LAY-1
  6
CONTINUOUS
 62
     7
100
AcDbVertex
100
AcDb2dVertex
 10
698.26017
 20
118.90844
 30
0.0
  0
VERTEX
  5
1CC
100
AcDbEntity
  8
LAY-1
  6
CONTINUOUS
 62
     7
100
AcDbVertex
100
AcDb2dVertex
 10
697.92537
 20
118.96244
 30
0.0
  0
VERTEX
  5
1CD
100
AcDbEntity
  8
LAY-1
  6
CONTINUOUS
 62
     7
100
AcDbVertex
100
AcDb2dVertex
 10
697.55817
 20
119.00564
 30
0.0
  0
VERTEX
  5
1CE
100
AcDbEntity
  8
LAY-1
  6
CONTINUOUS
 62
     7
100
AcDbVertex
100
AcDb2dVertex
 10
697.16937
 20
119.05964
 30
0.0
  0
VERTEX
  5
1CF
100
AcDbEntity
  8
LAY-1
  6
CONTINUOUS
 62
     7
100
AcDbVertex
100
AcDb2dVertex
 10
696.76977
 20
119.11364
 30
0.0
  0
VERTEX
  5
1D0
100
AcDbEntity
  8
LAY-1
  6
CONTINUOUS
 62
     7
100
AcDbVertex
100
AcDb2dVertex
 10
696.33777
 20
119.16764
 30
0.0
  0
VERTEX
  5
1D1
100
AcDbEntity
  8
LAY-1
  6
CONTINUOUS
 62
     7
100
AcDbVertex
100
AcDb2dVertex
 10
695.77617
 20
119.25404
 30
0.0
  0
VERTEX
  5
1D2
100
AcDbEntity
  8
LAY-1
  6
CONTINUOUS
 62
     7
100
AcDbVertex
100
AcDb2dVertex
 10
695.21457
 20
119.31884
 30
0.0
  0
VERTEX
  5
1D3
100
AcDbEntity
  8
LAY-1
  6
CONTINUOUS
 62
     7
100
AcDbVertex
100
AcDb2dVertex
 10
694.68537
 20
119.38364
 30
0.0
  0
VERTEX
  5
1D4
100
AcDbEntity
  8
LAY-1
  6
CONTINUOUS
 62
     7
100
AcDbVertex
100
AcDb2dVertex
 10
694.17777
 20
119.45924
 30
0.0
  0
SEQEND
  5
1D5
100
AcDbEntity
  8
LAY-1
  6
CONTINUOUS
 62
     7
  0
POLYLINE
  5
1D6
100
AcDbEntity
  8
LAY-1
  6
CONTINUOUS
 62
     7
100
AcDb2dPolyline
 66
     1
 10
0.0
 20
0.0
 30
0.0
 70
   128
  0
VERTEX
  5
1D7
100
AcDbEntity
  8
LAY-1
  6
CONTINUOUS
 62
     7
100
AcDbVertex
100
AcDb2dVertex
 10
768.78417
 20
138.14324
 30
0.0
  0
VERTEX
  5
1D8
100
AcDbEntity
  8
LAY-1
  6
CONTINUOUS
 62
     7
100
AcDbVertex
100
AcDb2dVertex
 10
768.35217
 20
138.53204
 30
0.0
  0
VERTEX
  5
1D9
100
AcDbEntity
  8
LAY-1
  6
CONTINUOUS
 62
     7
100
AcDbVertex
100
AcDb2dVertex
 10
767.60697
 20
138.72644
 30
0.0
  0
VERTEX
  5
1DA
100
AcDbEntity
  8
LAY-1
  6
CONTINUOUS
 62
     7
100
AcDbVertex
100
AcDb2dVertex
 10
766.60257
 20
138.71564
 30
0.0
  0
VERTEX
  5
1DB
100
AcDbEntity
  8
LAY-1
  6
CONTINUOUS
 62
     7
100
AcDbVertex
100
AcDb2dVertex
 10
765.37137
 20
138.49964
 30
0.0
  0
VERTEX
  5
1DC
100
AcDbEntity
  8
LAY-1
  6
CONTINUOUS
 62
     7
100
AcDbVertex
100
AcDb2dVertex
 10
763.93497
 20
138.08924
 30
0.0
  0
VERTEX
  5
1DD
100
AcDbEntity
  8
LAY-1
  6
CONTINUOUS
 62
     7
100
AcDbVertex
100
AcDb2dVertex
 10
762.37977
 20
137.49524
 30
0.0
  0
VERTEX
  5
1DE
100
AcDbEntity
  8
LAY-1
  6
CONTINUOUS
 62
     7
100
AcDbVertex
100
AcDb2dVertex
 10
760.75977
 20
136.73924
 30
0.0
  0
VERTEX
  5
1DF
100
AcDbEntity
  8
LAY-1
  6
CONTINUOUS
 62
     7
100
AcDbVertex
100
AcDb2dVertex
 10
759.11817
 20
135.85364
 30
0.0
  0
VERTEX
  5
1E0
100
AcDbEntity
  8
LAY-1
  6
CONTINUOUS
 62
     7
100
AcDbVertex
100
AcDb2dVertex
 10
757.54137
 20
134.88164
 30
0.0
  0
VERTEX
  5
1E1
100
AcDbEntity
  8
LAY-1
  6
CONTINUOUS
 62
     7
100
AcDbVertex
100
AcDb2dVertex
 10
756.08337
 20
133.85564
 30
0.0
  0
VERTEX
  5
1E2
100
AcDbEntity
  8
LAY-1
  6
CONTINUOUS
 62
     7
100
AcDbVertex
100
AcDb2dVertex
 10
754.79817
 20
132.79724
 30
0.0
  0
VERTEX
  5
1E3
100
AcDbEntity
  8
LAY-1
  6
CONTINUOUS
 62
     7
100
AcDbVertex
100
AcDb2dVertex
 10
753.72897
 20
131.77124
 30
0.0
  0
VERTEX
  5
1E4
100
AcDbEntity
  8
LAY-1
  6
CONTINUOUS
 62
     7
100
AcDbVertex
100
AcDb2dVertex
 10
752.90817
 20
130.81004
 30
0.0
  0
VERTEX
  5
1E5
100
AcDbEntity
  8
LAY-1
  6
CONTINUOUS
 62
     7
100
AcDbVertex
100
AcDb2dVertex
 10
752.40057
 20
129.93524
 30
0.0
  0
VERTEX
  5
1E6
100
AcDbEntity
  8
LAY-1
  6
CONTINUOUS
 62
     7
100
AcDbVertex
100
AcDb2dVertex
 10
752.20617
 20
129.20084
 30
0.0
  0
VERTEX
  5
1E7
100
AcDbEntity
  8
LAY-1
  6
CONTINUOUS
 62
     7
100
AcDbVertex
100
AcDb2dVertex
 10
752.31417
 20
128.62844
 30
0.0
  0
VERTEX
  5
1E8
100
AcDbEntity
  8
LAY-1
  6
CONTINUOUS
 62
     7
100
AcDbVertex
100
AcDb2dVertex
 10
752.76777
 20
128.23964
 30
0.0
  0
VERTEX
  5
1E9
100
AcDbEntity
  8
LAY-1
  6
CONTINUOUS
 62
     7
100
AcDbVertex
100
AcDb2dVertex
 10
753.49137
 20
128.04524
 30
0.0
  0
VERTEX
  5
1EA
100
AcDbEntity
  8
LAY-1
  6
CONTINUOUS
 62
     7
100
AcDbVertex
100
AcDb2dVertex
 10
754.49577
 20
128.05604
 30
0.0
  0
VERTEX
  5
1EB
100
AcDbEntity
  8
LAY-1
  6
CONTINUOUS
 62
     7
100
AcDbVertex
100
AcDb2dVertex
 10
755.74857
 20
128.27204
 30
0.0
  0
VERTEX
  5
1EC
100
AcDbEntity
  8
LAY-1
  6
CONTINUOUS
 62
     7
100
AcDbVertex
100
AcDb2dVertex
 10
757.16337
 20
128.68244
 30
0.0
  0
VERTEX
  5
1ED
100
AcDbEntity
  8
LAY-1
  6
CONTINUOUS
 62
     7
100
AcDbVertex
100
AcDb2dVertex
 10
758.71857
 20
129.27644
 30
0.0
  0
VERTEX
  5
1EE
100
AcDbEntity
  8
LAY-1
  6
CONTINUOUS
 62
     7
100
AcDbVertex
100
AcDb2dVertex
 10
760.34937
 20
130.02164
 30
0.0
  0
VERTEX
  5
1EF
100
AcDbEntity
  8
LAY-1
  6
CONTINUOUS
 62
     7
100
AcDbVertex
100
AcDb2dVertex
 10
761.98017
 20
130.90724
 30
0.0
  0
VERTEX
  5
1F0
100
AcDbEntity
  8
LAY-1
  6
CONTINUOUS
 62
     7
100
AcDbVertex
100
AcDb2dVertex
 10
763.56777
 20
131.87924
 30
0.0
  0
VERTEX
  5
1F1
100
AcDbEntity
  8
LAY-1
  6
CONTINUOUS
 62
     7
100
AcDbVertex
100
AcDb2dVertex
 10
765.02577
 20
132.91604
 30
0.0
  0
VERTEX
  5
1F2
100
AcDbEntity
  8
LAY-1
  6
CONTINUOUS
 62
     7
100
AcDbVertex
100
AcDb2dVertex
 10
766.32177
 20
133.96364
 30
0.0
  0
VERTEX
  5
1F3
100
AcDbEntity
  8
LAY-1
  6
CONTINUOUS
 62
     7
100
AcDbVertex
100
AcDb2dVertex
 10
767.39097
 20
135.00044
 30
0.0
  0
VERTEX
  5
1F4
100
AcDbEntity
  8
LAY-1
  6
CONTINUOUS
 62
     7
100
AcDbVertex
100
AcDb2dVertex
 10
768.19017
 20
135.96164
 30
0.0
  0
VERTEX
  5
1F5
100
AcDbEntity
  8
LAY-1
  6
CONTINUOUS
 62
     7
100
AcDbVertex
100
AcDb2dVertex
 10
768.70857
 20
136.82564
 30
0.0
  0
VERTEX
  5
1F6
100
AcDbEntity
  8
LAY-1
  6
CONTINUOUS
 62
     7
100
AcDbVertex
100
AcDb2dVertex
 10
768.91377
 20
137.57084
 30
0.0
  0
VERTEX
  5
1F7
100
AcDbEntity
  8
LAY-1
  6
CONTINUOUS
 62
     7
100
AcDbVertex
100
AcDb2dVertex
 10
768.78417
 20
138.14324
 30
0.0
  0
SEQEND
  5
1F8
100
AcDbEntity
  8
LAY-1
  6
CONTINUOUS
 62
     7
  0
POLYLINE
  5
1F9
100
AcDbEntity
  8
LAY-1
  6
CONTINUOUS
 62
     7
100
AcDb2dPolyline
 66
     1
 10
0.0
 20
0.0
 30
0.0
 70
   128
  0
VERTEX
  5
1FA
100
AcDbEntity
  8
LAY-1
  6
CONTINUOUS
 62
     7
100
AcDbVertex
100
AcDb2dVertex
 10
782.87817
 20
117.87164
 30
0.0
  0
VERTEX
  5
1FB
100
AcDbEntity
  8
LAY-1
  6
CONTINUOUS
 62
     7
100
AcDbVertex
100
AcDb2dVertex
 10
782.96457
 20
118.13084
 30
0.0
  0
VERTEX
  5
1FC
100
AcDbEntity
  8
LAY-1
  6
CONTINUOUS
 62
     7
100
AcDbVertex
100
AcDb2dVertex
 10
783.05097
 20
118.41164
 30
0.0
  0
VERTEX
  5
1FD
100
AcDbEntity
  8
LAY-1
  6
CONTINUOUS
 62
     7
100
AcDbVertex
100
AcDb2dVertex
 10
783.10497
 20
118.71404
 30
0.0
  0
VERTEX
  5
1FE
100
AcDbEntity
  8
LAY-1
  6
CONTINUOUS
 62
     7
100
AcDbVertex
100
AcDb2dVertex
 10
783.12657
 20
119.02724
 30
0.0
  0
VERTEX
  5
1FF
100
AcDbEntity
  8
LAY-1
  6
CONTINUOUS
 62
     7
100
AcDbVertex
100
AcDb2dVertex
 10
783.14817
 20
119.37284
 30
0.0
  0
VERTEX
  5
200
100
AcDbEntity
  8
LAY-1
  6
CONTINUOUS
 62
     7
100
AcDbVertex
100
AcDb2dVertex
 10
783.14817
 20
120.16124
 30
0.0
  0
SEQEND
  5
201
100
AcDbEntity
  8
LAY-1
  6
CONTINUOUS
 62
     7
  0
POLYLINE
  5
202
100
AcDbEntity
  8
LAY-1
  6
CONTINUOUS
 62
     7
100
AcDb2dPolyline
 66
     1
 10
0.0
 20
0.0
 30
0.0
 70
   128
  0
VERTEX
  5
203
100
AcDbEntity
  8
LAY-1
  6
CONTINUOUS
 62
     7
100
AcDbVertex
100
AcDb2dVertex
 10
774.40017
 20
119.20004
 30
0.0
  0
VERTEX
  5
204
100
AcDbEntity
  8
LAY-1
  6
CONTINUOUS
 62
     7
100
AcDbVertex
100
AcDb2dVertex
 10
773.90337
 20
119.14604
 30
0.0
  0
VERTEX
  5
205
100
AcDbEntity
  8
LAY-1
  6
CONTINUOUS
 62
     7
100
AcDbVertex
100
AcDb2dVertex
 10
773.47137
 20
119.09204
 30
0.0
  0
VERTEX
  5
206
100
AcDbEntity
  8
LAY-1
  6
CONTINUOUS
 62
     7
100
AcDbVertex
100
AcDb2dVertex
 10
773.07177
 20
119.03804
 30
0.0
  0
VERTEX
  5
207
100
AcDbEntity
  8
LAY-1
  6
CONTINUOUS
 62
     7
100
AcDbVertex
100
AcDb2dVertex
 10
772.73697
 20
118.98404
 30
0.0
  0
VERTEX
  5
208
100
AcDbEntity
  8
LAY-1
  6
CONTINUOUS
 62
     7
100
AcDbVertex
100
AcDb2dVertex
 10
772.43457
 20
118.91924
 30
0.0
  0
VERTEX
  5
209
100
AcDbEntity
  8
LAY-1
  6
CONTINUOUS
 62
     7
100
AcDbVertex
100
AcDb2dVertex
 10
772.17537
 20
118.85444
 30
0.0
  0
VERTEX
  5
20A
100
AcDbEntity
  8
LAY-1
  6
CONTINUOUS
 62
     7
100
AcDbVertex
100
AcDb2dVertex
 10
771.91617
 20
118.78964
 30
0.0
  0
VERTEX
  5
20B
100
AcDbEntity
  8
LAY-1
  6
CONTINUOUS
 62
     7
100
AcDbVertex
100
AcDb2dVertex
 10
771.70017
 20
118.71404
 30
0.0
  0
VERTEX
  5
20C
100
AcDbEntity
  8
LAY-1
  6
CONTINUOUS
 62
     7
100
AcDbVertex
100
AcDb2dVertex
 10
771.47337
 20
118.62764
 30
0.0
  0
VERTEX
  5
20D
100
AcDbEntity
  8
LAY-1
  6
CONTINUOUS
 62
     7
100
AcDbVertex
100
AcDb2dVertex
 10
771.26817
 20
118.54124
 30
0.0
  0
VERTEX
  5
20E
100
AcDbEntity
  8
LAY-1
  6
CONTINUOUS
 62
     7
100
AcDbVertex
100
AcDb2dVertex
 10
771.08457
 20
118.43324
 30
0.0
  0
VERTEX
  5
20F
100
AcDbEntity
  8
LAY-1
  6
CONTINUOUS
 62
     7
100
AcDbVertex
100
AcDb2dVertex
 10
770.91177
 20
118.33604
 30
0.0
  0
VERTEX
  5
210
100
AcDbEntity
  8
LAY-1
  6
CONTINUOUS
 62
     7
100
AcDbVertex
100
AcDb2dVertex
 10
770.74977
 20
118.22804
 30
0.0
  0
VERTEX
  5
211
100
AcDbEntity
  8
LAY-1
  6
CONTINUOUS
 62
     7
100
AcDbVertex
100
AcDb2dVertex
 10
770.60937
 20
118.10924
 30
0.0
  0
VERTEX
  5
212
100
AcDbEntity
  8
LAY-1
  6
CONTINUOUS
 62
     7
100
AcDbVertex
100
AcDb2dVertex
 10
770.49057
 20
117.99044
 30
0.0
  0
VERTEX
  5
213
100
AcDbEntity
  8
LAY-1
  6
CONTINUOUS
 62
     7
100
AcDbVertex
100
AcDb2dVertex
 10
770.39337
 20
117.86084
 30
0.0
  0
VERTEX
  5
214
100
AcDbEntity
  8
LAY-1
  6
CONTINUOUS
 62
     7
100
AcDbVertex
100
AcDb2dVertex
 10
770.29617
 20
117.74204
 30
0.0
  0
VERTEX
  5
215
100
AcDbEntity
  8
LAY-1
  6
CONTINUOUS
 62
     7
100
AcDbVertex
100
AcDb2dVertex
 10
770.23137
 20
117.61244
 30
0.0
  0
VERTEX
  5
216
100
AcDbEntity
  8
LAY-1
  6
CONTINUOUS
 62
     7
100
AcDbVertex
100
AcDb2dVertex
 10
770.18817
 20
117.48284
 30
0.0
  0
VERTEX
  5
217
100
AcDbEntity
  8
LAY-1
  6
CONTINUOUS
 62
     7
100
AcDbVertex
100
AcDb2dVertex
 10
770.16657
 20
117.34244
 30
0.0
  0
VERTEX
  5
218
100
AcDbEntity
  8
LAY-1
  6
CONTINUOUS
 62
     7
100
AcDbVertex
100
AcDb2dVertex
 10
770.15577
 20
117.21284
 30
0.0
  0
VERTEX
  5
219
100
AcDbEntity
  8
LAY-1
  6
CONTINUOUS
 62
     7
100
AcDbVertex
100
AcDb2dVertex
 10
770.17737
 20
117.00764
 30
0.0
  0
VERTEX
  5
21A
100
AcDbEntity
  8
LAY-1
  6
CONTINUOUS
 62
     7
100
AcDbVertex
100
AcDb2dVertex
 10
770.23137
 20
116.79164
 30
0.0
  0
VERTEX
  5
21B
100
AcDbEntity
  8
LAY-1
  6
CONTINUOUS
 62
     7
100
AcDbVertex
100
AcDb2dVertex
 10
770.33937
 20
116.60804
 30
0.0
  0
VERTEX
  5
21C
100
AcDbEntity
  8
LAY-1
  6
CONTINUOUS
 62
     7
100
AcDbVertex
100
AcDb2dVertex
 10
770.49057
 20
116.42444
 30
0.0
  0
VERTEX
  5
21D
100
AcDbEntity
  8
LAY-1
  6
CONTINUOUS
 62
     7
100
AcDbVertex
100
AcDb2dVertex
 10
770.66337
 20
116.25164
 30
0.0
  0
VERTEX
  5
21E
100
AcDbEntity
  8
LAY-1
  6
CONTINUOUS
 62
     7
100
AcDbVertex
100
AcDb2dVertex
 10
770.89017
 20
116.08964
 30
0.0
  0
VERTEX
  5
21F
100
AcDbEntity
  8
LAY-1
  6
CONTINUOUS
 62
     7
100
AcDbVertex
100
AcDb2dVertex
 10
771.16017
 20
115.92764
 30
0.0
  0
VERTEX
  5
220
100
AcDbEntity
  8
LAY-1
  6
CONTINUOUS
 62
     7
100
AcDbVertex
100
AcDb2dVertex
 10
771.45177
 20
115.77644
 30
0.0
  0
VERTEX
  5
221
100
AcDbEntity
  8
LAY-1
  6
CONTINUOUS
 62
     7
100
AcDbVertex
100
AcDb2dVertex
 10
771.79737
 20
115.64684
 30
0.0
  0
VERTEX
  5
222
100
AcDbEntity
  8
LAY-1
  6
CONTINUOUS
 62
     7
100
AcDbVertex
100
AcDb2dVertex
 10
772.17537
 20
115.53884
 30
0.0
  0
VERTEX
  5
223
100
AcDbEntity
  8
LAY-1
  6
CONTINUOUS
 62
     7
100
AcDbVertex
100
AcDb2dVertex
 10
772.59657
 20
115.44164
 30
0.0
  0
VERTEX
  5
224
100
AcDbEntity
  8
LAY-1
  6
CONTINUOUS
 62
     7
100
AcDbVertex
100
AcDb2dVertex
 10
773.05017
 20
115.35524
 30
0.0
  0
VERTEX
  5
225
100
AcDbEntity
  8
LAY-1
  6
CONTINUOUS
 62
     7
100
AcDbVertex
100
AcDb2dVertex
 10
773.53617
 20
115.29044
 30
0.0
  0
VERTEX
  5
226
100
AcDbEntity
  8
LAY-1
  6
CONTINUOUS
 62
     7
100
AcDbVertex
100
AcDb2dVertex
 10
774.06537
 20
115.24724
 30
0.0
  0
VERTEX
  5
227
100
AcDbEntity
  8
LAY-1
  6
CONTINUOUS
 62
     7
100
AcDbVertex
100
AcDb2dVertex
 10
774.63777
 20
115.22564
 30
0.0
  0
VERTEX
  5
228
100
AcDbEntity
  8
LAY-1
  6
CONTINUOUS
 62
     7
100
AcDbVertex
100
AcDb2dVertex
 10
775.24257
 20
115.20404
 30
0.0
  0
VERTEX
  5
229
100
AcDbEntity
  8
LAY-1
  6
CONTINUOUS
 62
     7
100
AcDbVertex
100
AcDb2dVertex
 10
775.84737
 20
115.22564
 30
0.0
  0
VERTEX
  5
22A
100
AcDbEntity
  8
LAY-1
  6
CONTINUOUS
 62
     7
100
AcDbVertex
100
AcDb2dVertex
 10
776.45217
 20
115.24724
 30
0.0
  0
VERTEX
  5
22B
100
AcDbEntity
  8
LAY-1
  6
CONTINUOUS
 62
     7
100
AcDbVertex
100
AcDb2dVertex
 10
777.01377
 20
115.29044
 30
0.0
  0
VERTEX
  5
22C
100
AcDbEntity
  8
LAY-1
  6
CONTINUOUS
 62
     7
100
AcDbVertex
100
AcDb2dVertex
 10
777.56457
 20
115.35524
 30
0.0
  0
VERTEX
  5
22D
100
AcDbEntity
  8
LAY-1
  6
CONTINUOUS
 62
     7
100
AcDbVertex
100
AcDb2dVertex
 10
778.11537
 20
115.42004
 30
0.0
  0
VERTEX
  5
22E
100
AcDbEntity
  8
LAY-1
  6
CONTINUOUS
 62
     7
100
AcDbVertex
100
AcDb2dVertex
 10
778.63377
 20
115.51724
 30
0.0
  0
VERTEX
  5
22F
100
AcDbEntity
  8
LAY-1
  6
CONTINUOUS
 62
     7
100
AcDbVertex
100
AcDb2dVertex
 10
779.14137
 20
115.63604
 30
0.0
  0
VERTEX
  5
230
100
AcDbEntity
  8
LAY-1
  6
CONTINUOUS
 62
     7
100
AcDbVertex
100
AcDb2dVertex
 10
779.63817
 20
115.75484
 30
0.0
  0
VERTEX
  5
231
100
AcDbEntity
  8
LAY-1
  6
CONTINUOUS
 62
     7
100
AcDbVertex
100
AcDb2dVertex
 10
780.09177
 20
115.89524
 30
0.0
  0
VERTEX
  5
232
100
AcDbEntity
  8
LAY-1
  6
CONTINUOUS
 62
     7
100
AcDbVertex
100
AcDb2dVertex
 10
780.53457
 20
116.04644
 30
0.0
  0
VERTEX
  5
233
100
AcDbEntity
  8
LAY-1
  6
CONTINUOUS
 62
     7
100
AcDbVertex
100
AcDb2dVertex
 10
780.92337
 20
116.20844
 30
0.0
  0
VERTEX
  5
234
100
AcDbEntity
  8
LAY-1
  6
CONTINUOUS
 62
     7
100
AcDbVertex
100
AcDb2dVertex
 10
781.29057
 20
116.39204
 30
0.0
  0
VERTEX
  5
235
100
AcDbEntity
  8
LAY-1
  6
CONTINUOUS
 62
     7
100
AcDbVertex
100
AcDb2dVertex
 10
781.64697
 20
116.58644
 30
0.0
  0
VERTEX
  5
236
100
AcDbEntity
  8
LAY-1
  6
CONTINUOUS
 62
     7
100
AcDbVertex
100
AcDb2dVertex
 10
781.94937
 20
116.79164
 30
0.0
  0
VERTEX
  5
237
100
AcDbEntity
  8
LAY-1
  6
CONTINUOUS
 62
     7
100
AcDbVertex
100
AcDb2dVertex
 10
782.21937
 20
117.00764
 30
0.0
  0
VERTEX
  5
238
100
AcDbEntity
  8
LAY-1
  6
CONTINUOUS
 62
     7
100
AcDbVertex
100
AcDb2dVertex
 10
782.44617
 20
117.23444
 30
0.0
  0
VERTEX
  5
239
100
AcDbEntity
  8
LAY-1
  6
CONTINUOUS
 62
     7
100
AcDbVertex
100
AcDb2dVertex
 10
782.62977
 20
117.42884
 30
0.0
  0
VERTEX
  5
23A
100
AcDbEntity
  8
LAY-1
  6
CONTINUOUS
 62
     7
100
AcDbVertex
100
AcDb2dVertex
 10
782.75937
 20
117.64484
 30
0.0
  0
VERTEX
  5
23B
100
AcDbEntity
  8
LAY-1
  6
CONTINUOUS
 62
     7
100
AcDbVertex
100
AcDb2dVertex
 10
782.87817
 20
117.87164
 30
0.0
  0
SEQEND
  5
23C
100
AcDbEntity
  8
LAY-1
  6
CONTINUOUS
 62
     7
  0
POLYLINE
  5
23D
100
AcDbEntity
  8
LAY-1
  6
CONTINUOUS
 62
     7
100
AcDb2dPolyline
 66
     1
 10
0.0
 20
0.0
 30
0.0
 70
   128
  0
VERTEX
  5
23E
100
AcDbEntity
  8
LAY-1
  6
CONTINUOUS
 62
     7
100
AcDbVertex
100
AcDb2dVertex
 10
783.14817
 20
120.16124
 30
0.0
  0
VERTEX
  5
23F
100
AcDbEntity
  8
LAY-1
  6
CONTINUOUS
 62
     7
100
AcDbVertex
100
AcDb2dVertex
 10
782.84577
 20
120.09644
 30
0.0
  0
VERTEX
  5
240
100
AcDbEntity
  8
LAY-1
  6
CONTINUOUS
 62
     7
100
AcDbVertex
100
AcDb2dVertex
 10
782.53257
 20
120.03164
 30
0.0
  0
VERTEX
  5
241
100
AcDbEntity
  8
LAY-1
  6
CONTINUOUS
 62
     7
100
AcDbVertex
100
AcDb2dVertex
 10
782.18697
 20
119.97764
 30
0.0
  0
VERTEX
  5
242
100
AcDbEntity
  8
LAY-1
  6
CONTINUOUS
 62
     7
100
AcDbVertex
100
AcDb2dVertex
 10
781.84137
 20
119.92364
 30
0.0
  0
VERTEX
  5
243
100
AcDbEntity
  8
LAY-1
  6
CONTINUOUS
 62
     7
100
AcDbVertex
100
AcDb2dVertex
 10
781.47417
 20
119.86964
 30
0.0
  0
VERTEX
  5
244
100
AcDbEntity
  8
LAY-1
  6
CONTINUOUS
 62
     7
100
AcDbVertex
100
AcDb2dVertex
 10
781.07457
 20
119.82644
 30
0.0
  0
VERTEX
  5
245
100
AcDbEntity
  8
LAY-1
  6
CONTINUOUS
 62
     7
100
AcDbVertex
100
AcDb2dVertex
 10
780.66417
 20
119.77244
 30
0.0
  0
VERTEX
  5
246
100
AcDbEntity
  8
LAY-1
  6
CONTINUOUS
 62
     7
100
AcDbVertex
100
AcDb2dVertex
 10
780.23217
 20
119.71844
 30
0.0
  0
VERTEX
  5
247
100
AcDbEntity
  8
LAY-1
  6
CONTINUOUS
 62
     7
100
AcDbVertex
100
AcDb2dVertex
 10
779.78937
 20
119.66444
 30
0.0
  0
VERTEX
  5
248
100
AcDbEntity
  8
LAY-1
  6
CONTINUOUS
 62
     7
100
AcDbVertex
100
AcDb2dVertex
 10
779.33577
 20
119.62124
 30
0.0
  0
VERTEX
  5
249
100
AcDbEntity
  8
LAY-1
  6
CONTINUOUS
 62
     7
100
AcDbVertex
100
AcDb2dVertex
 10
778.84977
 20
119.56724
 30
0.0
  0
VERTEX
  5
24A
100
AcDbEntity
  8
LAY-1
  6
CONTINUOUS
 62
     7
100
AcDbVertex
100
AcDb2dVertex
 10
778.35297
 20
119.52404
 30
0.0
  0
VERTEX
  5
24B
100
AcDbEntity
  8
LAY-1
  6
CONTINUOUS
 62
     7
100
AcDbVertex
100
AcDb2dVertex
 10
777.82377
 20
119.48084
 30
0.0
  0
VERTEX
  5
24C
100
AcDbEntity
  8
LAY-1
  6
CONTINUOUS
 62
     7
100
AcDbVertex
100
AcDb2dVertex
 10
777.29457
 20
119.42684
 30
0.0
  0
VERTEX
  5
24D
100
AcDbEntity
  8
LAY-1
  6
CONTINUOUS
 62
     7
100
AcDbVertex
100
AcDb2dVertex
 10
776.73297
 20
119.38364
 30
0.0
  0
VERTEX
  5
24E
100
AcDbEntity
  8
LAY-1
  6
CONTINUOUS
 62
     7
100
AcDbVertex
100
AcDb2dVertex
 10
776.16057
 20
119.34044
 30
0.0
  0
VERTEX
  5
24F
100
AcDbEntity
  8
LAY-1
  6
CONTINUOUS
 62
     7
100
AcDbVertex
100
AcDb2dVertex
 10
775.52337
 20
119.30804
 30
0.0
  0
VERTEX
  5
250
100
AcDbEntity
  8
LAY-1
  6
CONTINUOUS
 62
     7
100
AcDbVertex
100
AcDb2dVertex
 10
774.94017
 20
119.25404
 30
0.0
  0
VERTEX
  5
251
100
AcDbEntity
  8
LAY-1
  6
CONTINUOUS
 62
     7
100
AcDbVertex
100
AcDb2dVertex
 10
774.40017
 20
119.20004
 30
0.0
  0
SEQEND
  5
252
100
AcDbEntity
  8
LAY-1
  6
CONTINUOUS
 62
     7
  0
POLYLINE
  5
253
100
AcDbEntity
  8
LAY-1
  6
CONTINUOUS
 62
     7
100
AcDb2dPolyline
 66
     1
 10
0.0
 20
0.0
 30
0.0
 70
   128
  0
VERTEX
  5
254
100
AcDbEntity
  8
LAY-1
  6
CONTINUOUS
 62
     7
100
AcDbVertex
100
AcDb2dVertex
 10
770.91177
 20
123.17444
 30
0.0
  0
VERTEX
  5
255
100
AcDbEntity
  8
LAY-1
  6
CONTINUOUS
 62
     7
100
AcDbVertex
100
AcDb2dVertex
 10
770.69577
 20
122.88284
 30
0.0
  0
VERTEX
  5
256
100
AcDbEntity
  8
LAY-1
  6
CONTINUOUS
 62
     7
100
AcDbVertex
100
AcDb2dVertex
 10
770.51217
 20
122.55884
 30
0.0
  0
VERTEX
  5
257
100
AcDbEntity
  8
LAY-1
  6
CONTINUOUS
 62
     7
100
AcDbVertex
100
AcDb2dVertex
 10
766.34337
 20
122.85044
 30
0.0
  0
VERTEX
  5
258
100
AcDbEntity
  8
LAY-1
  6
CONTINUOUS
 62
     7
100
AcDbVertex
100
AcDb2dVertex
 10
766.49457
 20
123.16364
 30
0.0
  0
VERTEX
  5
259
100
AcDbEntity
  8
LAY-1
  6
CONTINUOUS
 62
     7
100
AcDbVertex
100
AcDb2dVertex
 10
766.66737
 20
123.48764
 30
0.0
  0
VERTEX
  5
25A
100
AcDbEntity
  8
LAY-1
  6
CONTINUOUS
 62
     7
100
AcDbVertex
100
AcDb2dVertex
 10
766.87257
 20
123.76844
 30
0.0
  0
VERTEX
  5
25B
100
AcDbEntity
  8
LAY-1
  6
CONTINUOUS
 62
     7
100
AcDbVertex
100
AcDb2dVertex
 10
767.08857
 20
124.06004
 30
0.0
  0
VERTEX
  5
25C
100
AcDbEntity
  8
LAY-1
  6
CONTINUOUS
 62
     7
100
AcDbVertex
100
AcDb2dVertex
 10
767.33697
 20
124.31924
 30
0.0
  0
VERTEX
  5
25D
100
AcDbEntity
  8
LAY-1
  6
CONTINUOUS
 62
     7
100
AcDbVertex
100
AcDb2dVertex
 10
767.60697
 20
124.56764
 30
0.0
  0
VERTEX
  5
25E
100
AcDbEntity
  8
LAY-1
  6
CONTINUOUS
 62
     7
100
AcDbVertex
100
AcDb2dVertex
 10
767.90937
 20
124.79444
 30
0.0
  0
VERTEX
  5
25F
100
AcDbEntity
  8
LAY-1
  6
CONTINUOUS
 62
     7
100
AcDbVertex
100
AcDb2dVertex
 10
768.20097
 20
125.01044
 30
0.0
  0
VERTEX
  5
260
100
AcDbEntity
  8
LAY-1
  6
CONTINUOUS
 62
     7
100
AcDbVertex
100
AcDb2dVertex
 10
768.55737
 20
125.20484
 30
0.0
  0
VERTEX
  5
261
100
AcDbEntity
  8
LAY-1
  6
CONTINUOUS
 62
     7
100
AcDbVertex
100
AcDb2dVertex
 10
768.93537
 20
125.39924
 30
0.0
  0
VERTEX
  5
262
100
AcDbEntity
  8
LAY-1
  6
CONTINUOUS
 62
     7
100
AcDbVertex
100
AcDb2dVertex
 10
769.35657
 20
125.57204
 30
0.0
  0
VERTEX
  5
263
100
AcDbEntity
  8
LAY-1
  6
CONTINUOUS
 62
     7
100
AcDbVertex
100
AcDb2dVertex
 10
769.81017
 20
125.73404
 30
0.0
  0
VERTEX
  5
264
100
AcDbEntity
  8
LAY-1
  6
CONTINUOUS
 62
     7
100
AcDbVertex
100
AcDb2dVertex
 10
770.29617
 20
125.88524
 30
0.0
  0
VERTEX
  5
265
100
AcDbEntity
  8
LAY-1
  6
CONTINUOUS
 62
     7
100
AcDbVertex
100
AcDb2dVertex
 10
770.81457
 20
126.03644
 30
0.0
  0
VERTEX
  5
266
100
AcDbEntity
  8
LAY-1
  6
CONTINUOUS
 62
     7
100
AcDbVertex
100
AcDb2dVertex
 10
771.38697
 20
126.16604
 30
0.0
  0
VERTEX
  5
267
100
AcDbEntity
  8
LAY-1
  6
CONTINUOUS
 62
     7
100
AcDbVertex
100
AcDb2dVertex
 10
771.99177
 20
126.27404
 30
0.0
  0
VERTEX
  5
268
100
AcDbEntity
  8
LAY-1
  6
CONTINUOUS
 62
     7
100
AcDbVertex
100
AcDb2dVertex
 10
772.60737
 20
126.38204
 30
0.0
  0
VERTEX
  5
269
100
AcDbEntity
  8
LAY-1
  6
CONTINUOUS
 62
     7
100
AcDbVertex
100
AcDb2dVertex
 10
773.27697
 20
126.46844
 30
0.0
  0
VERTEX
  5
26A
100
AcDbEntity
  8
LAY-1
  6
CONTINUOUS
 62
     7
100
AcDbVertex
100
AcDb2dVertex
 10
773.94657
 20
126.55484
 30
0.0
  0
VERTEX
  5
26B
100
AcDbEntity
  8
LAY-1
  6
CONTINUOUS
 62
     7
100
AcDbVertex
100
AcDb2dVertex
 10
774.64857
 20
126.61964
 30
0.0
  0
VERTEX
  5
26C
100
AcDbEntity
  8
LAY-1
  6
CONTINUOUS
 62
     7
100
AcDbVertex
100
AcDb2dVertex
 10
775.38297
 20
126.66284
 30
0.0
  0
VERTEX
  5
26D
100
AcDbEntity
  8
LAY-1
  6
CONTINUOUS
 62
     7
100
AcDbVertex
100
AcDb2dVertex
 10
776.12817
 20
126.70604
 30
0.0
  0
VERTEX
  5
26E
100
AcDbEntity
  8
LAY-1
  6
CONTINUOUS
 62
     7
100
AcDbVertex
100
AcDb2dVertex
 10
776.91657
 20
126.71684
 30
0.0
  0
VERTEX
  5
26F
100
AcDbEntity
  8
LAY-1
  6
CONTINUOUS
 62
     7
100
AcDbVertex
100
AcDb2dVertex
 10
777.70497
 20
126.71684
 30
0.0
  0
VERTEX
  5
270
100
AcDbEntity
  8
LAY-1
  6
CONTINUOUS
 62
     7
100
AcDbVertex
100
AcDb2dVertex
 10
778.50417
 20
126.71684
 30
0.0
  0
VERTEX
  5
271
100
AcDbEntity
  8
LAY-1
  6
CONTINUOUS
 62
     7
100
AcDbVertex
100
AcDb2dVertex
 10
779.23857
 20
126.70604
 30
0.0
  0
VERTEX
  5
272
100
AcDbEntity
  8
LAY-1
  6
CONTINUOUS
 62
     7
100
AcDbVertex
100
AcDb2dVertex
 10
779.96217
 20
126.67364
 30
0.0
  0
VERTEX
  5
273
100
AcDbEntity
  8
LAY-1
  6
CONTINUOUS
 62
     7
100
AcDbVertex
100
AcDb2dVertex
 10
780.64257
 20
126.64124
 30
0.0
  0
VERTEX
  5
274
100
AcDbEntity
  8
LAY-1
  6
CONTINUOUS
 62
     7
100
AcDbVertex
100
AcDb2dVertex
 10
781.26897
 20
126.57644
 30
0.0
  0
VERTEX
  5
275
100
AcDbEntity
  8
LAY-1
  6
CONTINUOUS
 62
     7
100
AcDbVertex
100
AcDb2dVertex
 10
781.86297
 20
126.51164
 30
0.0
  0
VERTEX
  5
276
100
AcDbEntity
  8
LAY-1
  6
CONTINUOUS
 62
     7
100
AcDbVertex
100
AcDb2dVertex
 10
782.43537
 20
126.43604
 30
0.0
  0
VERTEX
  5
277
100
AcDbEntity
  8
LAY-1
  6
CONTINUOUS
 62
     7
100
AcDbVertex
100
AcDb2dVertex
 10
782.95377
 20
126.34964
 30
0.0
  0
VERTEX
  5
278
100
AcDbEntity
  8
LAY-1
  6
CONTINUOUS
 62
     7
100
AcDbVertex
100
AcDb2dVertex
 10
783.43977
 20
126.24164
 30
0.0
  0
VERTEX
  5
279
100
AcDbEntity
  8
LAY-1
  6
CONTINUOUS
 62
     7
100
AcDbVertex
100
AcDb2dVertex
 10
783.89337
 20
126.14444
 30
0.0
  0
VERTEX
  5
27A
100
AcDbEntity
  8
LAY-1
  6
CONTINUOUS
 62
     7
100
AcDbVertex
100
AcDb2dVertex
 10
784.32537
 20
126.02564
 30
0.0
  0
VERTEX
  5
27B
100
AcDbEntity
  8
LAY-1
  6
CONTINUOUS
 62
     7
100
AcDbVertex
100
AcDb2dVertex
 10
784.71417
 20
125.91764
 30
0.0
  0
VERTEX
  5
27C
100
AcDbEntity
  8
LAY-1
  6
CONTINUOUS
 62
     7
100
AcDbVertex
100
AcDb2dVertex
 10
785.05977
 20
125.78804
 30
0.0
  0
VERTEX
  5
27D
100
AcDbEntity
  8
LAY-1
  6
CONTINUOUS
 62
     7
100
AcDbVertex
100
AcDb2dVertex
 10
785.38377
 20
125.66924
 30
0.0
  0
VERTEX
  5
27E
100
AcDbEntity
  8
LAY-1
  6
CONTINUOUS
 62
     7
100
AcDbVertex
100
AcDb2dVertex
 10
785.67537
 20
125.52884
 30
0.0
  0
VERTEX
  5
27F
100
AcDbEntity
  8
LAY-1
  6
CONTINUOUS
 62
     7
100
AcDbVertex
100
AcDb2dVertex
 10
785.93457
 20
125.38844
 30
0.0
  0
VERTEX
  5
280
100
AcDbEntity
  8
LAY-1
  6
CONTINUOUS
 62
     7
100
AcDbVertex
100
AcDb2dVertex
 10
786.15057
 20
125.23724
 30
0.0
  0
VERTEX
  5
281
100
AcDbEntity
  8
LAY-1
  6
CONTINUOUS
 62
     7
100
AcDbVertex
100
AcDb2dVertex
 10
786.36657
 20
125.08604
 30
0.0
  0
VERTEX
  5
282
100
AcDbEntity
  8
LAY-1
  6
CONTINUOUS
 62
     7
100
AcDbVertex
100
AcDb2dVertex
 10
786.55017
 20
124.91324
 30
0.0
  0
VERTEX
  5
283
100
AcDbEntity
  8
LAY-1
  6
CONTINUOUS
 62
     7
100
AcDbVertex
100
AcDb2dVertex
 10
786.73377
 20
124.72964
 30
0.0
  0
VERTEX
  5
284
100
AcDbEntity
  8
LAY-1
  6
CONTINUOUS
 62
     7
100
AcDbVertex
100
AcDb2dVertex
 10
786.88497
 20
124.55684
 30
0.0
  0
VERTEX
  5
285
100
AcDbEntity
  8
LAY-1
  6
CONTINUOUS
 62
     7
100
AcDbVertex
100
AcDb2dVertex
 10
787.02537
 20
124.35164
 30
0.0
  0
VERTEX
  5
286
100
AcDbEntity
  8
LAY-1
  6
CONTINUOUS
 62
     7
100
AcDbVertex
100
AcDb2dVertex
 10
787.14417
 20
124.14644
 30
0.0
  0
VERTEX
  5
287
100
AcDbEntity
  8
LAY-1
  6
CONTINUOUS
 62
     7
100
AcDbVertex
100
AcDb2dVertex
 10
787.25217
 20
123.93044
 30
0.0
  0
VERTEX
  5
288
100
AcDbEntity
  8
LAY-1
  6
CONTINUOUS
 62
     7
100
AcDbVertex
100
AcDb2dVertex
 10
787.28457
 20
123.85484
 30
0.0
  0
VERTEX
  5
289
100
AcDbEntity
  8
LAY-1
  6
CONTINUOUS
 62
     7
100
AcDbVertex
100
AcDb2dVertex
 10
787.30617
 20
123.79004
 30
0.0
  0
VERTEX
  5
28A
100
AcDbEntity
  8
LAY-1
  6
CONTINUOUS
 62
     7
100
AcDbVertex
100
AcDb2dVertex
 10
787.31697
 20
123.69284
 30
0.0
  0
VERTEX
  5
28B
100
AcDbEntity
  8
LAY-1
  6
CONTINUOUS
 62
     7
100
AcDbVertex
100
AcDb2dVertex
 10
787.34937
 20
123.60644
 30
0.0
  0
VERTEX
  5
28C
100
AcDbEntity
  8
LAY-1
  6
CONTINUOUS
 62
     7
100
AcDbVertex
100
AcDb2dVertex
 10
787.36017
 20
123.50924
 30
0.0
  0
VERTEX
  5
28D
100
AcDbEntity
  8
LAY-1
  6
CONTINUOUS
 62
     7
100
AcDbVertex
100
AcDb2dVertex
 10
787.39257
 20
123.40124
 30
0.0
  0
VERTEX
  5
28E
100
AcDbEntity
  8
LAY-1
  6
CONTINUOUS
 62
     7
100
AcDbVertex
100
AcDb2dVertex
 10
787.40337
 20
123.29324
 30
0.0
  0
VERTEX
  5
28F
100
AcDbEntity
  8
LAY-1
  6
CONTINUOUS
 62
     7
100
AcDbVertex
100
AcDb2dVertex
 10
787.41417
 20
123.16364
 30
0.0
  0
VERTEX
  5
290
100
AcDbEntity
  8
LAY-1
  6
CONTINUOUS
 62
     7
100
AcDbVertex
100
AcDb2dVertex
 10
787.42497
 20
123.03404
 30
0.0
  0
VERTEX
  5
291
100
AcDbEntity
  8
LAY-1
  6
CONTINUOUS
 62
     7
100
AcDbVertex
100
AcDb2dVertex
 10
787.44657
 20
122.91524
 30
0.0
  0
VERTEX
  5
292
100
AcDbEntity
  8
LAY-1
  6
CONTINUOUS
 62
     7
100
AcDbVertex
100
AcDb2dVertex
 10
787.45737
 20
122.76404
 30
0.0
  0
VERTEX
  5
293
100
AcDbEntity
  8
LAY-1
  6
CONTINUOUS
 62
     7
100
AcDbVertex
100
AcDb2dVertex
 10
787.45737
 20
122.61284
 30
0.0
  0
VERTEX
  5
294
100
AcDbEntity
  8
LAY-1
  6
CONTINUOUS
 62
     7
100
AcDbVertex
100
AcDb2dVertex
 10
787.46817
 20
122.47244
 30
0.0
  0
VERTEX
  5
295
100
AcDbEntity
  8
LAY-1
  6
CONTINUOUS
 62
     7
100
AcDbVertex
100
AcDb2dVertex
 10
787.46817
 20
122.31044
 30
0.0
  0
VERTEX
  5
296
100
AcDbEntity
  8
LAY-1
  6
CONTINUOUS
 62
     7
100
AcDbVertex
100
AcDb2dVertex
 10
787.46817
 20
122.12684
 30
0.0
  0
VERTEX
  5
297
100
AcDbEntity
  8
LAY-1
  6
CONTINUOUS
 62
     7
100
AcDbVertex
100
AcDb2dVertex
 10
787.46817
 20
121.96484
 30
0.0
  0
VERTEX
  5
298
100
AcDbEntity
  8
LAY-1
  6
CONTINUOUS
 62
     7
100
AcDbVertex
100
AcDb2dVertex
 10
787.46817
 20
119.11364
 30
0.0
  0
VERTEX
  5
299
100
AcDbEntity
  8
LAY-1
  6
CONTINUOUS
 62
     7
100
AcDbVertex
100
AcDb2dVertex
 10
787.46817
 20
118.75724
 30
0.0
  0
VERTEX
  5
29A
100
AcDbEntity
  8
LAY-1
  6
CONTINUOUS
 62
     7
100
AcDbVertex
100
AcDb2dVertex
 10
787.46817
 20
118.39004
 30
0.0
  0
VERTEX
  5
29B
100
AcDbEntity
  8
LAY-1
  6
CONTINUOUS
 62
     7
100
AcDbVertex
100
AcDb2dVertex
 10
787.47897
 20
118.07684
 30
0.0
  0
VERTEX
  5
29C
100
AcDbEntity
  8
LAY-1
  6
CONTINUOUS
 62
     7
100
AcDbVertex
100
AcDb2dVertex
 10
787.47897
 20
117.75284
 30
0.0
  0
VERTEX
  5
29D
100
AcDbEntity
  8
LAY-1
  6
CONTINUOUS
 62
     7
100
AcDbVertex
100
AcDb2dVertex
 10
787.50057
 20
117.46124
 30
0.0
  0
VERTEX
  5
29E
100
AcDbEntity
  8
LAY-1
  6
CONTINUOUS
 62
     7
100
AcDbVertex
100
AcDb2dVertex
 10
787.51137
 20
117.19124
 30
0.0
  0
VERTEX
  5
29F
100
AcDbEntity
  8
LAY-1
  6
CONTINUOUS
 62
     7
100
AcDbVertex
100
AcDb2dVertex
 10
787.52217
 20
116.92124
 30
0.0
  0
VERTEX
  5
2A0
100
AcDbEntity
  8
LAY-1
  6
CONTINUOUS
 62
     7
100
AcDbVertex
100
AcDb2dVertex
 10
787.53297
 20
116.68364
 30
0.0
  0
VERTEX
  5
2A1
100
AcDbEntity
  8
LAY-1
  6
CONTINUOUS
 62
     7
100
AcDbVertex
100
AcDb2dVertex
 10
787.55457
 20
116.44604
 30
0.0
  0
VERTEX
  5
2A2
100
AcDbEntity
  8
LAY-1
  6
CONTINUOUS
 62
     7
100
AcDbVertex
100
AcDb2dVertex
 10
787.56537
 20
116.24084
 30
0.0
  0
VERTEX
  5
2A3
100
AcDbEntity
  8
LAY-1
  6
CONTINUOUS
 62
     7
100
AcDbVertex
100
AcDb2dVertex
 10
787.59777
 20
116.04644
 30
0.0
  0
VERTEX
  5
2A4
100
AcDbEntity
  8
LAY-1
  6
CONTINUOUS
 62
     7
100
AcDbVertex
100
AcDb2dVertex
 10
787.61937
 20
115.87364
 30
0.0
  0
VERTEX
  5
2A5
100
AcDbEntity
  8
LAY-1
  6
CONTINUOUS
 62
     7
100
AcDbVertex
100
AcDb2dVertex
 10
787.65177
 20
115.70084
 30
0.0
  0
VERTEX
  5
2A6
100
AcDbEntity
  8
LAY-1
  6
CONTINUOUS
 62
     7
100
AcDbVertex
100
AcDb2dVertex
 10
787.67337
 20
115.57124
 30
0.0
  0
VERTEX
  5
2A7
100
AcDbEntity
  8
LAY-1
  6
CONTINUOUS
 62
     7
100
AcDbVertex
100
AcDb2dVertex
 10
787.70577
 20
115.44164
 30
0.0
  0
VERTEX
  5
2A8
100
AcDbEntity
  8
LAY-1
  6
CONTINUOUS
 62
     7
100
AcDbVertex
100
AcDb2dVertex
 10
787.74897
 20
115.33364
 30
0.0
  0
VERTEX
  5
2A9
100
AcDbEntity
  8
LAY-1
  6
CONTINUOUS
 62
     7
100
AcDbVertex
100
AcDb2dVertex
 10
787.82457
 20
115.13924
 30
0.0
  0
VERTEX
  5
2AA
100
AcDbEntity
  8
LAY-1
  6
CONTINUOUS
 62
     7
100
AcDbVertex
100
AcDb2dVertex
 10
787.92177
 20
114.94484
 30
0.0
  0
VERTEX
  5
2AB
100
AcDbEntity
  8
LAY-1
  6
CONTINUOUS
 62
     7
100
AcDbVertex
100
AcDb2dVertex
 10
788.02977
 20
114.75044
 30
0.0
  0
VERTEX
  5
2AC
100
AcDbEntity
  8
LAY-1
  6
CONTINUOUS
 62
     7
100
AcDbVertex
100
AcDb2dVertex
 10
788.13777
 20
114.57764
 30
0.0
  0
VERTEX
  5
2AD
100
AcDbEntity
  8
LAY-1
  6
CONTINUOUS
 62
     7
100
AcDbVertex
100
AcDb2dVertex
 10
788.28897
 20
114.37244
 30
0.0
  0
VERTEX
  5
2AE
100
AcDbEntity
  8
LAY-1
  6
CONTINUOUS
 62
     7
100
AcDbVertex
100
AcDb2dVertex
 10
788.45097
 20
114.18884
 30
0.0
  0
VERTEX
  5
2AF
100
AcDbEntity
  8
LAY-1
  6
CONTINUOUS
 62
     7
100
AcDbVertex
100
AcDb2dVertex
 10
788.63457
 20
114.00524
 30
0.0
  0
VERTEX
  5
2B0
100
AcDbEntity
  8
LAY-1
  6
CONTINUOUS
 62
     7
100
AcDbVertex
100
AcDb2dVertex
 10
788.81817
 20
113.82164
 30
0.0
  0
VERTEX
  5
2B1
100
AcDbEntity
  8
LAY-1
  6
CONTINUOUS
 62
     7
100
AcDbVertex
100
AcDb2dVertex
 10
784.36857
 20
113.82164
 30
0.0
  0
VERTEX
  5
2B2
100
AcDbEntity
  8
LAY-1
  6
CONTINUOUS
 62
     7
100
AcDbVertex
100
AcDb2dVertex
 10
784.20657
 20
114.00524
 30
0.0
  0
VERTEX
  5
2B3
100
AcDbEntity
  8
LAY-1
  6
CONTINUOUS
 62
     7
100
AcDbVertex
100
AcDb2dVertex
 10
784.05537
 20
114.16724
 30
0.0
  0
VERTEX
  5
2B4
100
AcDbEntity
  8
LAY-1
  6
CONTINUOUS
 62
     7
100
AcDbVertex
100
AcDb2dVertex
 10
783.92577
 20
114.36164
 30
0.0
  0
VERTEX
  5
2B5
100
AcDbEntity
  8
LAY-1
  6
CONTINUOUS
 62
     7
100
AcDbVertex
100
AcDb2dVertex
 10
783.80697
 20
114.55604
 30
0.0
  0
VERTEX
  5
2B6
100
AcDbEntity
  8
LAY-1
  6
CONTINUOUS
 62
     7
100
AcDbVertex
100
AcDb2dVertex
 10
783.72057
 20
114.75044
 30
0.0
  0
VERTEX
  5
2B7
100
AcDbEntity
  8
LAY-1
  6
CONTINUOUS
 62
     7
100
AcDbVertex
100
AcDb2dVertex
 10
783.63417
 20
114.94484
 30
0.0
  0
VERTEX
  5
2B8
100
AcDbEntity
  8
LAY-1
  6
CONTINUOUS
 62
     7
100
AcDbVertex
100
AcDb2dVertex
 10
783.54777
 20
115.15004
 30
0.0
  0
VERTEX
  5
2B9
100
AcDbEntity
  8
LAY-1
  6
CONTINUOUS
 62
     7
100
AcDbVertex
100
AcDb2dVertex
 10
783.49377
 20
115.37684
 30
0.0
  0
SEQEND
  5
2BA
100
AcDbEntity
  8
LAY-1
  6
CONTINUOUS
 62
     7
  0
POLYLINE
  5
2BB
100
AcDbEntity
  8
LAY-1
  6
CONTINUOUS
 62
     7
100
AcDb2dPolyline
 66
     1
 10
0.0
 20
0.0
 30
0.0
 70
   128
  0
VERTEX
  5
2BC
100
AcDbEntity
  8
LAY-1
  6
CONTINUOUS
 62
     7
100
AcDbVertex
100
AcDb2dVertex
 10
775.45857
 20
113.56244
 30
0.0
  0
VERTEX
  5
2BD
100
AcDbEntity
  8
LAY-1
  6
CONTINUOUS
 62
     7
100
AcDbVertex
100
AcDb2dVertex
 10
774.84297
 20
113.54084
 30
0.0
  0
VERTEX
  5
2BE
100
AcDbEntity
  8
LAY-1
  6
CONTINUOUS
 62
     7
100
AcDbVertex
100
AcDb2dVertex
 10
774.21657
 20
113.54084
 30
0.0
  0
VERTEX
  5
2BF
100
AcDbEntity
  8
LAY-1
  6
CONTINUOUS
 62
     7
100
AcDbVertex
100
AcDb2dVertex
 10
773.71977
 20
113.54084
 30
0.0
  0
VERTEX
  5
2C0
100
AcDbEntity
  8
LAY-1
  6
CONTINUOUS
 62
     7
100
AcDbVertex
100
AcDb2dVertex
 10
773.21217
 20
113.55164
 30
0.0
  0
VERTEX
  5
2C1
100
AcDbEntity
  8
LAY-1
  6
CONTINUOUS
 62
     7
100
AcDbVertex
100
AcDb2dVertex
 10
772.73697
 20
113.57324
 30
0.0
  0
VERTEX
  5
2C2
100
AcDbEntity
  8
LAY-1
  6
CONTINUOUS
 62
     7
100
AcDbVertex
100
AcDb2dVertex
 10
772.26177
 20
113.60564
 30
0.0
  0
VERTEX
  5
2C3
100
AcDbEntity
  8
LAY-1
  6
CONTINUOUS
 62
     7
100
AcDbVertex
100
AcDb2dVertex
 10
771.80817
 20
113.63804
 30
0.0
  0
VERTEX
  5
2C4
100
AcDbEntity
  8
LAY-1
  6
CONTINUOUS
 62
     7
100
AcDbVertex
100
AcDb2dVertex
 10
771.37617
 20
113.68124
 30
0.0
  0
VERTEX
  5
2C5
100
AcDbEntity
  8
LAY-1
  6
CONTINUOUS
 62
     7
100
AcDbVertex
100
AcDb2dVertex
 10
770.95497
 20
113.73524
 30
0.0
  0
VERTEX
  5
2C6
100
AcDbEntity
  8
LAY-1
  6
CONTINUOUS
 62
     7
100
AcDbVertex
100
AcDb2dVertex
 10
770.54457
 20
113.78924
 30
0.0
  0
VERTEX
  5
2C7
100
AcDbEntity
  8
LAY-1
  6
CONTINUOUS
 62
     7
100
AcDbVertex
100
AcDb2dVertex
 10
770.15577
 20
113.86484
 30
0.0
  0
VERTEX
  5
2C8
100
AcDbEntity
  8
LAY-1
  6
CONTINUOUS
 62
     7
100
AcDbVertex
100
AcDb2dVertex
 10
769.76697
 20
113.94044
 30
0.0
  0
VERTEX
  5
2C9
100
AcDbEntity
  8
LAY-1
  6
CONTINUOUS
 62
     7
100
AcDbVertex
100
AcDb2dVertex
 10
769.41057
 20
114.02684
 30
0.0
  0
VERTEX
  5
2CA
100
AcDbEntity
  8
LAY-1
  6
CONTINUOUS
 62
     7
100
AcDbVertex
100
AcDb2dVertex
 10
769.07577
 20
114.10244
 30
0.0
  0
VERTEX
  5
2CB
100
AcDbEntity
  8
LAY-1
  6
CONTINUOUS
 62
     7
100
AcDbVertex
100
AcDb2dVertex
 10
768.74097
 20
114.21044
 30
0.0
  0
VERTEX
  5
2CC
100
AcDbEntity
  8
LAY-1
  6
CONTINUOUS
 62
     7
100
AcDbVertex
100
AcDb2dVertex
 10
768.41697
 20
114.31844
 30
0.0
  0
VERTEX
  5
2CD
100
AcDbEntity
  8
LAY-1
  6
CONTINUOUS
 62
     7
100
AcDbVertex
100
AcDb2dVertex
 10
768.11457
 20
114.42644
 30
0.0
  0
VERTEX
  5
2CE
100
AcDbEntity
  8
LAY-1
  6
CONTINUOUS
 62
     7
100
AcDbVertex
100
AcDb2dVertex
 10
767.83377
 20
114.55604
 30
0.0
  0
VERTEX
  5
2CF
100
AcDbEntity
  8
LAY-1
  6
CONTINUOUS
 62
     7
100
AcDbVertex
100
AcDb2dVertex
 10
767.55297
 20
114.67484
 30
0.0
  0
VERTEX
  5
2D0
100
AcDbEntity
  8
LAY-1
  6
CONTINUOUS
 62
     7
100
AcDbVertex
100
AcDb2dVertex
 10
767.30457
 20
114.81524
 30
0.0
  0
VERTEX
  5
2D1
100
AcDbEntity
  8
LAY-1
  6
CONTINUOUS
 62
     7
100
AcDbVertex
100
AcDb2dVertex
 10
767.07777
 20
114.95564
 30
0.0
  0
VERTEX
  5
2D2
100
AcDbEntity
  8
LAY-1
  6
CONTINUOUS
 62
     7
100
AcDbVertex
100
AcDb2dVertex
 10
766.86177
 20
115.10684
 30
0.0
  0
VERTEX
  5
2D3
100
AcDbEntity
  8
LAY-1
  6
CONTINUOUS
 62
     7
100
AcDbVertex
100
AcDb2dVertex
 10
766.65657
 20
115.24724
 30
0.0
  0
VERTEX
  5
2D4
100
AcDbEntity
  8
LAY-1
  6
CONTINUOUS
 62
     7
100
AcDbVertex
100
AcDb2dVertex
 10
766.46217
 20
115.39844
 30
0.0
  0
VERTEX
  5
2D5
100
AcDbEntity
  8
LAY-1
  6
CONTINUOUS
 62
     7
100
AcDbVertex
100
AcDb2dVertex
 10
766.31097
 20
115.54964
 30
0.0
  0
VERTEX
  5
2D6
100
AcDbEntity
  8
LAY-1
  6
CONTINUOUS
 62
     7
100
AcDbVertex
100
AcDb2dVertex
 10
766.15977
 20
115.70084
 30
0.0
  0
VERTEX
  5
2D7
100
AcDbEntity
  8
LAY-1
  6
CONTINUOUS
 62
     7
100
AcDbVertex
100
AcDb2dVertex
 10
766.03017
 20
115.87364
 30
0.0
  0
VERTEX
  5
2D8
100
AcDbEntity
  8
LAY-1
  6
CONTINUOUS
 62
     7
100
AcDbVertex
100
AcDb2dVertex
 10
765.92217
 20
116.04644
 30
0.0
  0
VERTEX
  5
2D9
100
AcDbEntity
  8
LAY-1
  6
CONTINUOUS
 62
     7
100
AcDbVertex
100
AcDb2dVertex
 10
765.82497
 20
116.21924
 30
0.0
  0
VERTEX
  5
2DA
100
AcDbEntity
  8
LAY-1
  6
CONTINUOUS
 62
     7
100
AcDbVertex
100
AcDb2dVertex
 10
765.73857
 20
116.39204
 30
0.0
  0
VERTEX
  5
2DB
100
AcDbEntity
  8
LAY-1
  6
CONTINUOUS
 62
     7
100
AcDbVertex
100
AcDb2dVertex
 10
765.67377
 20
116.58644
 30
0.0
  0
VERTEX
  5
2DC
100
AcDbEntity
  8
LAY-1
  6
CONTINUOUS
 62
     7
100
AcDbVertex
100
AcDb2dVertex
 10
765.63057
 20
116.75924
 30
0.0
  0
VERTEX
  5
2DD
100
AcDbEntity
  8
LAY-1
  6
CONTINUOUS
 62
     7
100
AcDbVertex
100
AcDb2dVertex
 10
765.60897
 20
116.95364
 30
0.0
  0
VERTEX
  5
2DE
100
AcDbEntity
  8
LAY-1
  6
CONTINUOUS
 62
     7
100
AcDbVertex
100
AcDb2dVertex
 10
765.58737
 20
117.15884
 30
0.0
  0
VERTEX
  5
2DF
100
AcDbEntity
  8
LAY-1
  6
CONTINUOUS
 62
     7
100
AcDbVertex
100
AcDb2dVertex
 10
765.60897
 20
117.37484
 30
0.0
  0
VERTEX
  5
2E0
100
AcDbEntity
  8
LAY-1
  6
CONTINUOUS
 62
     7
100
AcDbVertex
100
AcDb2dVertex
 10
765.64137
 20
117.60164
 30
0.0
  0
VERTEX
  5
2E1
100
AcDbEntity
  8
LAY-1
  6
CONTINUOUS
 62
     7
100
AcDbVertex
100
AcDb2dVertex
 10
765.71697
 20
117.81764
 30
0.0
  0
VERTEX
  5
2E2
100
AcDbEntity
  8
LAY-1
  6
CONTINUOUS
 62
     7
100
AcDbVertex
100
AcDb2dVertex
 10
765.81417
 20
118.04444
 30
0.0
  0
VERTEX
  5
2E3
100
AcDbEntity
  8
LAY-1
  6
CONTINUOUS
 62
     7
100
AcDbVertex
100
AcDb2dVertex
 10
765.93297
 20
118.24964
 30
0.0
  0
VERTEX
  5
2E4
100
AcDbEntity
  8
LAY-1
  6
CONTINUOUS
 62
     7
100
AcDbVertex
100
AcDb2dVertex
 10
766.07337
 20
118.44404
 30
0.0
  0
VERTEX
  5
2E5
100
AcDbEntity
  8
LAY-1
  6
CONTINUOUS
 62
     7
100
AcDbVertex
100
AcDb2dVertex
 10
766.24617
 20
118.64924
 30
0.0
  0
VERTEX
  5
2E6
100
AcDbEntity
  8
LAY-1
  6
CONTINUOUS
 62
     7
100
AcDbVertex
100
AcDb2dVertex
 10
766.45137
 20
118.83284
 30
0.0
  0
VERTEX
  5
2E7
100
AcDbEntity
  8
LAY-1
  6
CONTINUOUS
 62
     7
100
AcDbVertex
100
AcDb2dVertex
 10
766.66737
 20
119.02724
 30
0.0
  0
VERTEX
  5
2E8
100
AcDbEntity
  8
LAY-1
  6
CONTINUOUS
 62
     7
100
AcDbVertex
100
AcDb2dVertex
 10
766.89417
 20
119.21084
 30
0.0
  0
VERTEX
  5
2E9
100
AcDbEntity
  8
LAY-1
  6
CONTINUOUS
 62
     7
100
AcDbVertex
100
AcDb2dVertex
 10
767.14257
 20
119.37284
 30
0.0
  0
VERTEX
  5
2EA
100
AcDbEntity
  8
LAY-1
  6
CONTINUOUS
 62
     7
100
AcDbVertex
100
AcDb2dVertex
 10
767.41257
 20
119.53484
 30
0.0
  0
VERTEX
  5
2EB
100
AcDbEntity
  8
LAY-1
  6
CONTINUOUS
 62
     7
100
AcDbVertex
100
AcDb2dVertex
 10
767.70417
 20
119.68604
 30
0.0
  0
VERTEX
  5
2EC
100
AcDbEntity
  8
LAY-1
  6
CONTINUOUS
 62
     7
100
AcDbVertex
100
AcDb2dVertex
 10
768.01737
 20
119.82644
 30
0.0
  0
VERTEX
  5
2ED
100
AcDbEntity
  8
LAY-1
  6
CONTINUOUS
 62
     7
100
AcDbVertex
100
AcDb2dVertex
 10
768.30897
 20
119.94524
 30
0.0
  0
VERTEX
  5
2EE
100
AcDbEntity
  8
LAY-1
  6
CONTINUOUS
 62
     7
100
AcDbVertex
100
AcDb2dVertex
 10
768.65457
 20
120.06404
 30
0.0
  0
VERTEX
  5
2EF
100
AcDbEntity
  8
LAY-1
  6
CONTINUOUS
 62
     7
100
AcDbVertex
100
AcDb2dVertex
 10
769.01097
 20
120.18284
 30
0.0
  0
VERTEX
  5
2F0
100
AcDbEntity
  8
LAY-1
  6
CONTINUOUS
 62
     7
100
AcDbVertex
100
AcDb2dVertex
 10
769.35657
 20
120.29084
 30
0.0
  0
VERTEX
  5
2F1
100
AcDbEntity
  8
LAY-1
  6
CONTINUOUS
 62
     7
100
AcDbVertex
100
AcDb2dVertex
 10
769.71297
 20
120.39884
 30
0.0
  0
VERTEX
  5
2F2
100
AcDbEntity
  8
LAY-1
  6
CONTINUOUS
 62
     7
100
AcDbVertex
100
AcDb2dVertex
 10
770.11257
 20
120.47444
 30
0.0
  0
VERTEX
  5
2F3
100
AcDbEntity
  8
LAY-1
  6
CONTINUOUS
 62
     7
100
AcDbVertex
100
AcDb2dVertex
 10
770.49057
 20
120.56084
 30
0.0
  0
VERTEX
  5
2F4
100
AcDbEntity
  8
LAY-1
  6
CONTINUOUS
 62
     7
100
AcDbVertex
100
AcDb2dVertex
 10
770.89017
 20
120.63644
 30
0.0
  0
VERTEX
  5
2F5
100
AcDbEntity
  8
LAY-1
  6
CONTINUOUS
 62
     7
100
AcDbVertex
100
AcDb2dVertex
 10
771.28977
 20
120.71204
 30
0.0
  0
VERTEX
  5
2F6
100
AcDbEntity
  8
LAY-1
  6
CONTINUOUS
 62
     7
100
AcDbVertex
100
AcDb2dVertex
 10
771.73257
 20
120.77684
 30
0.0
  0
VERTEX
  5
2F7
100
AcDbEntity
  8
LAY-1
  6
CONTINUOUS
 62
     7
100
AcDbVertex
100
AcDb2dVertex
 10
772.06737
 20
120.82004
 30
0.0
  0
VERTEX
  5
2F8
100
AcDbEntity
  8
LAY-1
  6
CONTINUOUS
 62
     7
100
AcDbVertex
100
AcDb2dVertex
 10
772.43457
 20
120.85244
 30
0.0
  0
VERTEX
  5
2F9
100
AcDbEntity
  8
LAY-1
  6
CONTINUOUS
 62
     7
100
AcDbVertex
100
AcDb2dVertex
 10
772.84497
 20
120.90644
 30
0.0
  0
VERTEX
  5
2FA
100
AcDbEntity
  8
LAY-1
  6
CONTINUOUS
 62
     7
100
AcDbVertex
100
AcDb2dVertex
 10
773.30937
 20
120.93884
 30
0.0
  0
VERTEX
  5
2FB
100
AcDbEntity
  8
LAY-1
  6
CONTINUOUS
 62
     7
100
AcDbVertex
100
AcDb2dVertex
 10
773.80617
 20
120.97124
 30
0.0
  0
VERTEX
  5
2FC
100
AcDbEntity
  8
LAY-1
  6
CONTINUOUS
 62
     7
100
AcDbVertex
100
AcDb2dVertex
 10
774.33537
 20
121.01444
 30
0.0
  0
VERTEX
  5
2FD
100
AcDbEntity
  8
LAY-1
  6
CONTINUOUS
 62
     7
100
AcDbVertex
100
AcDb2dVertex
 10
774.89697
 20
121.05764
 30
0.0
  0
VERTEX
  5
2FE
100
AcDbEntity
  8
LAY-1
  6
CONTINUOUS
 62
     7
100
AcDbVertex
100
AcDb2dVertex
 10
775.52337
 20
121.09004
 30
0.0
  0
VERTEX
  5
2FF
100
AcDbEntity
  8
LAY-1
  6
CONTINUOUS
 62
     7
100
AcDbVertex
100
AcDb2dVertex
 10
776.16057
 20
121.13324
 30
0.0
  0
VERTEX
  5
300
100
AcDbEntity
  8
LAY-1
  6
CONTINUOUS
 62
     7
100
AcDbVertex
100
AcDb2dVertex
 10
776.77617
 20
121.16564
 30
0.0
  0
VERTEX
  5
301
100
AcDbEntity
  8
LAY-1
  6
CONTINUOUS
 62
     7
100
AcDbVertex
100
AcDb2dVertex
 10
777.37017
 20
121.21964
 30
0.0
  0
VERTEX
  5
302
100
AcDbEntity
  8
LAY-1
  6
CONTINUOUS
 62
     7
100
AcDbVertex
100
AcDb2dVertex
 10
777.94257
 20
121.26284
 30
0.0
  0
VERTEX
  5
303
100
AcDbEntity
  8
LAY-1
  6
CONTINUOUS
 62
     7
100
AcDbVertex
100
AcDb2dVertex
 10
778.49337
 20
121.29524
 30
0.0
  0
VERTEX
  5
304
100
AcDbEntity
  8
LAY-1
  6
CONTINUOUS
 62
     7
100
AcDbVertex
100
AcDb2dVertex
 10
779.02257
 20
121.34924
 30
0.0
  0
VERTEX
  5
305
100
AcDbEntity
  8
LAY-1
  6
CONTINUOUS
 62
     7
100
AcDbVertex
100
AcDb2dVertex
 10
779.54097
 20
121.39244
 30
0.0
  0
VERTEX
  5
306
100
AcDbEntity
  8
LAY-1
  6
CONTINUOUS
 62
     7
100
AcDbVertex
100
AcDb2dVertex
 10
780.01617
 20
121.43564
 30
0.0
  0
VERTEX
  5
307
100
AcDbEntity
  8
LAY-1
  6
CONTINUOUS
 62
     7
100
AcDbVertex
100
AcDb2dVertex
 10
780.49137
 20
121.46804
 30
0.0
  0
VERTEX
  5
308
100
AcDbEntity
  8
LAY-1
  6
CONTINUOUS
 62
     7
100
AcDbVertex
100
AcDb2dVertex
 10
780.92337
 20
121.52204
 30
0.0
  0
VERTEX
  5
309
100
AcDbEntity
  8
LAY-1
  6
CONTINUOUS
 62
     7
100
AcDbVertex
100
AcDb2dVertex
 10
781.34457
 20
121.57604
 30
0.0
  0
VERTEX
  5
30A
100
AcDbEntity
  8
LAY-1
  6
CONTINUOUS
 62
     7
100
AcDbVertex
100
AcDb2dVertex
 10
781.74417
 20
121.61924
 30
0.0
  0
VERTEX
  5
30B
100
AcDbEntity
  8
LAY-1
  6
CONTINUOUS
 62
     7
100
AcDbVertex
100
AcDb2dVertex
 10
782.13297
 20
121.67324
 30
0.0
  0
VERTEX
  5
30C
100
AcDbEntity
  8
LAY-1
  6
CONTINUOUS
 62
     7
100
AcDbVertex
100
AcDb2dVertex
 10
782.48937
 20
121.72724
 30
0.0
  0
VERTEX
  5
30D
100
AcDbEntity
  8
LAY-1
  6
CONTINUOUS
 62
     7
100
AcDbVertex
100
AcDb2dVertex
 10
782.82417
 20
121.78124
 30
0.0
  0
VERTEX
  5
30E
100
AcDbEntity
  8
LAY-1
  6
CONTINUOUS
 62
     7
100
AcDbVertex
100
AcDb2dVertex
 10
783.14817
 20
121.83524
 30
0.0
  0
VERTEX
  5
30F
100
AcDbEntity
  8
LAY-1
  6
CONTINUOUS
 62
     7
100
AcDbVertex
100
AcDb2dVertex
 10
783.15897
 20
121.94324
 30
0.0
  0
VERTEX
  5
310
100
AcDbEntity
  8
LAY-1
  6
CONTINUOUS
 62
     7
100
AcDbVertex
100
AcDb2dVertex
 10
783.15897
 20
122.01884
 30
0.0
  0
VERTEX
  5
311
100
AcDbEntity
  8
LAY-1
  6
CONTINUOUS
 62
     7
100
AcDbVertex
100
AcDb2dVertex
 10
783.15897
 20
122.11604
 30
0.0
  0
VERTEX
  5
312
100
AcDbEntity
  8
LAY-1
  6
CONTINUOUS
 62
     7
100
AcDbVertex
100
AcDb2dVertex
 10
783.16977
 20
122.19164
 30
0.0
  0
VERTEX
  5
313
100
AcDbEntity
  8
LAY-1
  6
CONTINUOUS
 62
     7
100
AcDbVertex
100
AcDb2dVertex
 10
783.16977
 20
122.25644
 30
0.0
  0
VERTEX
  5
314
100
AcDbEntity
  8
LAY-1
  6
CONTINUOUS
 62
     7
100
AcDbVertex
100
AcDb2dVertex
 10
783.16977
 20
122.31044
 30
0.0
  0
VERTEX
  5
315
100
AcDbEntity
  8
LAY-1
  6
CONTINUOUS
 62
     7
100
AcDbVertex
100
AcDb2dVertex
 10
783.16977
 20
122.35364
 30
0.0
  0
VERTEX
  5
316
100
AcDbEntity
  8
LAY-1
  6
CONTINUOUS
 62
     7
100
AcDbVertex
100
AcDb2dVertex
 10
783.16977
 20
122.39684
 30
0.0
  0
VERTEX
  5
317
100
AcDbEntity
  8
LAY-1
  6
CONTINUOUS
 62
     7
100
AcDbVertex
100
AcDb2dVertex
 10
783.15897
 20
122.69924
 30
0.0
  0
VERTEX
  5
318
100
AcDbEntity
  8
LAY-1
  6
CONTINUOUS
 62
     7
100
AcDbVertex
100
AcDb2dVertex
 10
783.09417
 20
123.00164
 30
0.0
  0
VERTEX
  5
319
100
AcDbEntity
  8
LAY-1
  6
CONTINUOUS
 62
     7
100
AcDbVertex
100
AcDb2dVertex
 10
782.99697
 20
123.26084
 30
0.0
  0
VERTEX
  5
31A
100
AcDbEntity
  8
LAY-1
  6
CONTINUOUS
 62
     7
100
AcDbVertex
100
AcDb2dVertex
 10
782.85657
 20
123.50924
 30
0.0
  0
VERTEX
  5
31B
100
AcDbEntity
  8
LAY-1
  6
CONTINUOUS
 62
     7
100
AcDbVertex
100
AcDb2dVertex
 10
782.69457
 20
123.71444
 30
0.0
  0
VERTEX
  5
31C
100
AcDbEntity
  8
LAY-1
  6
CONTINUOUS
 62
     7
100
AcDbVertex
100
AcDb2dVertex
 10
782.48937
 20
123.90884
 30
0.0
  0
VERTEX
  5
31D
100
AcDbEntity
  8
LAY-1
  6
CONTINUOUS
 62
     7
100
AcDbVertex
100
AcDb2dVertex
 10
782.24097
 20
124.08164
 30
0.0
  0
VERTEX
  5
31E
100
AcDbEntity
  8
LAY-1
  6
CONTINUOUS
 62
     7
100
AcDbVertex
100
AcDb2dVertex
 10
781.96017
 20
124.23284
 30
0.0
  0
VERTEX
  5
31F
100
AcDbEntity
  8
LAY-1
  6
CONTINUOUS
 62
     7
100
AcDbVertex
100
AcDb2dVertex
 10
781.52817
 20
124.40564
 30
0.0
  0
VERTEX
  5
320
100
AcDbEntity
  8
LAY-1
  6
CONTINUOUS
 62
     7
100
AcDbVertex
100
AcDb2dVertex
 10
781.05297
 20
124.55684
 30
0.0
  0
VERTEX
  5
321
100
AcDbEntity
  8
LAY-1
  6
CONTINUOUS
 62
     7
100
AcDbVertex
100
AcDb2dVertex
 10
780.50217
 20
124.67564
 30
0.0
  0
VERTEX
  5
322
100
AcDbEntity
  8
LAY-1
  6
CONTINUOUS
 62
     7
100
AcDbVertex
100
AcDb2dVertex
 10
779.91897
 20
124.77284
 30
0.0
  0
VERTEX
  5
323
100
AcDbEntity
  8
LAY-1
  6
CONTINUOUS
 62
     7
100
AcDbVertex
100
AcDb2dVertex
 10
779.29257
 20
124.84844
 30
0.0
  0
VERTEX
  5
324
100
AcDbEntity
  8
LAY-1
  6
CONTINUOUS
 62
     7
100
AcDbVertex
100
AcDb2dVertex
 10
778.60137
 20
124.91324
 30
0.0
  0
VERTEX
  5
325
100
AcDbEntity
  8
LAY-1
  6
CONTINUOUS
 62
     7
100
AcDbVertex
100
AcDb2dVertex
 10
777.87777
 20
124.94564
 30
0.0
  0
VERTEX
  5
326
100
AcDbEntity
  8
LAY-1
  6
CONTINUOUS
 62
     7
100
AcDbVertex
100
AcDb2dVertex
 10
777.08937
 20
124.95644
 30
0.0
  0
VERTEX
  5
327
100
AcDbEntity
  8
LAY-1
  6
CONTINUOUS
 62
     7
100
AcDbVertex
100
AcDb2dVertex
 10
776.36577
 20
124.94564
 30
0.0
  0
VERTEX
  5
328
100
AcDbEntity
  8
LAY-1
  6
CONTINUOUS
 62
     7
100
AcDbVertex
100
AcDb2dVertex
 10
775.68537
 20
124.92404
 30
0.0
  0
VERTEX
  5
329
100
AcDbEntity
  8
LAY-1
  6
CONTINUOUS
 62
     7
100
AcDbVertex
100
AcDb2dVertex
 10
775.04817
 20
124.88084
 30
0.0
  0
VERTEX
  5
32A
100
AcDbEntity
  8
LAY-1
  6
CONTINUOUS
 62
     7
100
AcDbVertex
100
AcDb2dVertex
 10
774.46497
 20
124.81604
 30
0.0
  0
VERTEX
  5
32B
100
AcDbEntity
  8
LAY-1
  6
CONTINUOUS
 62
     7
100
AcDbVertex
100
AcDb2dVertex
 10
773.93577
 20
124.74044
 30
0.0
  0
VERTEX
  5
32C
100
AcDbEntity
  8
LAY-1
  6
CONTINUOUS
 62
     7
100
AcDbVertex
100
AcDb2dVertex
 10
773.46057
 20
124.65404
 30
0.0
  0
VERTEX
  5
32D
100
AcDbEntity
  8
LAY-1
  6
CONTINUOUS
 62
     7
100
AcDbVertex
100
AcDb2dVertex
 10
773.01777
 20
124.55684
 30
0.0
  0
VERTEX
  5
32E
100
AcDbEntity
  8
LAY-1
  6
CONTINUOUS
 62
     7
100
AcDbVertex
100
AcDb2dVertex
 10
772.63977
 20
124.42724
 30
0.0
  0
VERTEX
  5
32F
100
AcDbEntity
  8
LAY-1
  6
CONTINUOUS
 62
     7
100
AcDbVertex
100
AcDb2dVertex
 10
772.28337
 20
124.28684
 30
0.0
  0
VERTEX
  5
330
100
AcDbEntity
  8
LAY-1
  6
CONTINUOUS
 62
     7
100
AcDbVertex
100
AcDb2dVertex
 10
771.97017
 20
124.10324
 30
0.0
  0
VERTEX
  5
331
100
AcDbEntity
  8
LAY-1
  6
CONTINUOUS
 62
     7
100
AcDbVertex
100
AcDb2dVertex
 10
771.66777
 20
123.91964
 30
0.0
  0
VERTEX
  5
332
100
AcDbEntity
  8
LAY-1
  6
CONTINUOUS
 62
     7
100
AcDbVertex
100
AcDb2dVertex
 10
771.38697
 20
123.69284
 30
0.0
  0
VERTEX
  5
333
100
AcDbEntity
  8
LAY-1
  6
CONTINUOUS
 62
     7
100
AcDbVertex
100
AcDb2dVertex
 10
771.13857
 20
123.45524
 30
0.0
  0
VERTEX
  5
334
100
AcDbEntity
  8
LAY-1
  6
CONTINUOUS
 62
     7
100
AcDbVertex
100
AcDb2dVertex
 10
770.91177
 20
123.17444
 30
0.0
  0
SEQEND
  5
335
100
AcDbEntity
  8
LAY-1
  6
CONTINUOUS
 62
     7
  0
POLYLINE
  5
336
100
AcDbEntity
  8
LAY-1
  6
CONTINUOUS
 62
     7
100
AcDb2dPolyline
 66
     1
 10
0.0
 20
0.0
 30
0.0
 70
   128
  0
VERTEX
  5
337
100
AcDbEntity
  8
LAY-1
  6
CONTINUOUS
 62
     7
100
AcDbVertex
100
AcDb2dVertex
 10
783.49377
 20
115.37684
 30
0.0
  0
VERTEX
  5
338
100
AcDbEntity
  8
LAY-1
  6
CONTINUOUS
 62
     7
100
AcDbVertex
100
AcDb2dVertex
 10
782.91057
 20
115.13924
 30
0.0
  0
VERTEX
  5
339
100
AcDbEntity
  8
LAY-1
  6
CONTINUOUS
 62
     7
100
AcDbVertex
100
AcDb2dVertex
 10
782.32737
 20
114.91244
 30
0.0
  0
VERTEX
  5
33A
100
AcDbEntity
  8
LAY-1
  6
CONTINUOUS
 62
     7
100
AcDbVertex
100
AcDb2dVertex
 10
781.74417
 20
114.70724
 30
0.0
  0
VERTEX
  5
33B
100
AcDbEntity
  8
LAY-1
  6
CONTINUOUS
 62
     7
100
AcDbVertex
100
AcDb2dVertex
 10
781.18257
 20
114.52364
 30
0.0
  0
VERTEX
  5
33C
100
AcDbEntity
  8
LAY-1
  6
CONTINUOUS
 62
     7
100
AcDbVertex
100
AcDb2dVertex
 10
780.61017
 20
114.35084
 30
0.0
  0
VERTEX
  5
33D
100
AcDbEntity
  8
LAY-1
  6
CONTINUOUS
 62
     7
100
AcDbVertex
100
AcDb2dVertex
 10
780.03777
 20
114.19964
 30
0.0
  0
VERTEX
  5
33E
100
AcDbEntity
  8
LAY-1
  6
CONTINUOUS
 62
     7
100
AcDbVertex
100
AcDb2dVertex
 10
779.48697
 20
114.07004
 30
0.0
  0
VERTEX
  5
33F
100
AcDbEntity
  8
LAY-1
  6
CONTINUOUS
 62
     7
100
AcDbVertex
100
AcDb2dVertex
 10
778.93617
 20
113.96204
 30
0.0
  0
VERTEX
  5
340
100
AcDbEntity
  8
LAY-1
  6
CONTINUOUS
 62
     7
100
AcDbVertex
100
AcDb2dVertex
 10
778.38537
 20
113.86484
 30
0.0
  0
VERTEX
  5
341
100
AcDbEntity
  8
LAY-1
  6
CONTINUOUS
 62
     7
100
AcDbVertex
100
AcDb2dVertex
 10
777.81297
 20
113.76764
 30
0.0
  0
VERTEX
  5
342
100
AcDbEntity
  8
LAY-1
  6
CONTINUOUS
 62
     7
100
AcDbVertex
100
AcDb2dVertex
 10
777.24057
 20
113.69204
 30
0.0
  0
VERTEX
  5
343
100
AcDbEntity
  8
LAY-1
  6
CONTINUOUS
 62
     7
100
AcDbVertex
100
AcDb2dVertex
 10
776.65737
 20
113.63804
 30
0.0
  0
VERTEX
  5
344
100
AcDbEntity
  8
LAY-1
  6
CONTINUOUS
 62
     7
100
AcDbVertex
100
AcDb2dVertex
 10
776.05257
 20
113.59484
 30
0.0
  0
VERTEX
  5
345
100
AcDbEntity
  8
LAY-1
  6
CONTINUOUS
 62
     7
100
AcDbVertex
100
AcDb2dVertex
 10
775.45857
 20
113.56244
 30
0.0
  0
SEQEND
  5
346
100
AcDbEntity
  8
LAY-1
  6
CONTINUOUS
 62
     7
  0
POLYLINE
  5
347
100
AcDbEntity
  8
LAY-1
  6
CONTINUOUS
 62
     7
100
AcDb2dPolyline
 66
     1
 10
0.0
 20
0.0
 30
0.0
 70
   128
  0
VERTEX
  5
348
100
AcDbEntity
  8
LAY-1
  6
CONTINUOUS
 62
     7
100
AcDbVertex
100
AcDb2dVertex
 10
758.58897
 20
113.82164
 30
0.0
  0
VERTEX
  5
349
100
AcDbEntity
  8
LAY-1
  6
CONTINUOUS
 62
     7
100
AcDbVertex
100
AcDb2dVertex
 10
758.58897
 20
126.43604
 30
0.0
  0
VERTEX
  5
34A
100
AcDbEntity
  8
LAY-1
  6
CONTINUOUS
 62
     7
100
AcDbVertex
100
AcDb2dVertex
 10
762.87657
 20
126.43604
 30
0.0
  0
VERTEX
  5
34B
100
AcDbEntity
  8
LAY-1
  6
CONTINUOUS
 62
     7
100
AcDbVertex
100
AcDb2dVertex
 10
762.87657
 20
113.82164
 30
0.0
  0
VERTEX
  5
34C
100
AcDbEntity
  8
LAY-1
  6
CONTINUOUS
 62
     7
100
AcDbVertex
100
AcDb2dVertex
 10
758.58897
 20
113.82164
 30
0.0
  0
SEQEND
  5
34D
100
AcDbEntity
  8
LAY-1
  6
CONTINUOUS
 62
     7
  0
POLYLINE
  5
34E
100
AcDbEntity
  8
LAY-1
  6
CONTINUOUS
 62
     7
100
AcDb2dPolyline
 66
     1
 10
0.0
 20
0.0
 30
0.0
 70
   128
  0
VERTEX
  5
34F
100
AcDbEntity
  8
LAY-1
  6
CONTINUOUS
 62
     7
100
AcDbVertex
100
AcDb2dVertex
 10
746.61177
 20
126.71684
 30
0.0
  0
VERTEX
  5
350
100
AcDbEntity
  8
LAY-1
  6
CONTINUOUS
 62
     7
100
AcDbVertex
100
AcDb2dVertex
 10
747.27057
 20
126.71684
 30
0.0
  0
VERTEX
  5
351
100
AcDbEntity
  8
LAY-1
  6
CONTINUOUS
 62
     7
100
AcDbVertex
100
AcDb2dVertex
 10
747.82137
 20
126.71684
 30
0.0
  0
VERTEX
  5
352
100
AcDbEntity
  8
LAY-1
  6
CONTINUOUS
 62
     7
100
AcDbVertex
100
AcDb2dVertex
 10
748.38297
 20
126.70604
 30
0.0
  0
VERTEX
  5
353
100
AcDbEntity
  8
LAY-1
  6
CONTINUOUS
 62
     7
100
AcDbVertex
100
AcDb2dVertex
 10
748.92297
 20
126.67364
 30
0.0
  0
VERTEX
  5
354
100
AcDbEntity
  8
LAY-1
  6
CONTINUOUS
 62
     7
100
AcDbVertex
100
AcDb2dVertex
 10
749.46297
 20
126.61964
 30
0.0
  0
VERTEX
  5
355
100
AcDbEntity
  8
LAY-1
  6
CONTINUOUS
 62
     7
100
AcDbVertex
100
AcDb2dVertex
 10
749.98137
 20
126.56564
 30
0.0
  0
VERTEX
  5
356
100
AcDbEntity
  8
LAY-1
  6
CONTINUOUS
 62
     7
100
AcDbVertex
100
AcDb2dVertex
 10
750.47817
 20
126.49004
 30
0.0
  0
VERTEX
  5
357
100
AcDbEntity
  8
LAY-1
  6
CONTINUOUS
 62
     7
100
AcDbVertex
100
AcDb2dVertex
 10
750.97497
 20
126.41444
 30
0.0
  0
VERTEX
  5
358
100
AcDbEntity
  8
LAY-1
  6
CONTINUOUS
 62
     7
100
AcDbVertex
100
AcDb2dVertex
 10
751.46097
 20
126.30644
 30
0.0
  0
VERTEX
  5
359
100
AcDbEntity
  8
LAY-1
  6
CONTINUOUS
 62
     7
100
AcDbVertex
100
AcDb2dVertex
 10
751.92537
 20
126.19844
 30
0.0
  0
VERTEX
  5
35A
100
AcDbEntity
  8
LAY-1
  6
CONTINUOUS
 62
     7
100
AcDbVertex
100
AcDb2dVertex
 10
752.34657
 20
126.10124
 30
0.0
  0
VERTEX
  5
35B
100
AcDbEntity
  8
LAY-1
  6
CONTINUOUS
 62
     7
100
AcDbVertex
100
AcDb2dVertex
 10
752.76777
 20
125.97164
 30
0.0
  0
VERTEX
  5
35C
100
AcDbEntity
  8
LAY-1
  6
CONTINUOUS
 62
     7
100
AcDbVertex
100
AcDb2dVertex
 10
753.13497
 20
125.84204
 30
0.0
  0
VERTEX
  5
35D
100
AcDbEntity
  8
LAY-1
  6
CONTINUOUS
 62
     7
100
AcDbVertex
100
AcDb2dVertex
 10
753.45897
 20
125.70164
 30
0.0
  0
VERTEX
  5
35E
100
AcDbEntity
  8
LAY-1
  6
CONTINUOUS
 62
     7
100
AcDbVertex
100
AcDb2dVertex
 10
753.78297
 20
125.56124
 30
0.0
  0
VERTEX
  5
35F
100
AcDbEntity
  8
LAY-1
  6
CONTINUOUS
 62
     7
100
AcDbVertex
100
AcDb2dVertex
 10
754.06377
 20
125.41004
 30
0.0
  0
VERTEX
  5
360
100
AcDbEntity
  8
LAY-1
  6
CONTINUOUS
 62
     7
100
AcDbVertex
100
AcDb2dVertex
 10
754.31217
 20
125.23724
 30
0.0
  0
VERTEX
  5
361
100
AcDbEntity
  8
LAY-1
  6
CONTINUOUS
 62
     7
100
AcDbVertex
100
AcDb2dVertex
 10
754.54977
 20
125.07524
 30
0.0
  0
VERTEX
  5
362
100
AcDbEntity
  8
LAY-1
  6
CONTINUOUS
 62
     7
100
AcDbVertex
100
AcDb2dVertex
 10
754.75497
 20
124.89164
 30
0.0
  0
VERTEX
  5
363
100
AcDbEntity
  8
LAY-1
  6
CONTINUOUS
 62
     7
100
AcDbVertex
100
AcDb2dVertex
 10
754.94937
 20
124.70804
 30
0.0
  0
VERTEX
  5
364
100
AcDbEntity
  8
LAY-1
  6
CONTINUOUS
 62
     7
100
AcDbVertex
100
AcDb2dVertex
 10
755.12217
 20
124.51364
 30
0.0
  0
VERTEX
  5
365
100
AcDbEntity
  8
LAY-1
  6
CONTINUOUS
 62
     7
100
AcDbVertex
100
AcDb2dVertex
 10
755.28417
 20
124.30844
 30
0.0
  0
VERTEX
  5
366
100
AcDbEntity
  8
LAY-1
  6
CONTINUOUS
 62
     7
100
AcDbVertex
100
AcDb2dVertex
 10
755.42457
 20
124.10324
 30
0.0
  0
VERTEX
  5
367
100
AcDbEntity
  8
LAY-1
  6
CONTINUOUS
 62
     7
100
AcDbVertex
100
AcDb2dVertex
 10
755.54337
 20
123.88724
 30
0.0
  0
VERTEX
  5
368
100
AcDbEntity
  8
LAY-1
  6
CONTINUOUS
 62
     7
100
AcDbVertex
100
AcDb2dVertex
 10
755.65137
 20
123.66044
 30
0.0
  0
VERTEX
  5
369
100
AcDbEntity
  8
LAY-1
  6
CONTINUOUS
 62
     7
100
AcDbVertex
100
AcDb2dVertex
 10
755.67297
 20
123.57404
 30
0.0
  0
VERTEX
  5
36A
100
AcDbEntity
  8
LAY-1
  6
CONTINUOUS
 62
     7
100
AcDbVertex
100
AcDb2dVertex
 10
755.70537
 20
123.50924
 30
0.0
  0
VERTEX
  5
36B
100
AcDbEntity
  8
LAY-1
  6
CONTINUOUS
 62
     7
100
AcDbVertex
100
AcDb2dVertex
 10
755.72697
 20
123.41204
 30
0.0
  0
VERTEX
  5
36C
100
AcDbEntity
  8
LAY-1
  6
CONTINUOUS
 62
     7
100
AcDbVertex
100
AcDb2dVertex
 10
755.74857
 20
123.30404
 30
0.0
  0
VERTEX
  5
36D
100
AcDbEntity
  8
LAY-1
  6
CONTINUOUS
 62
     7
100
AcDbVertex
100
AcDb2dVertex
 10
755.77017
 20
123.19604
 30
0.0
  0
VERTEX
  5
36E
100
AcDbEntity
  8
LAY-1
  6
CONTINUOUS
 62
     7
100
AcDbVertex
100
AcDb2dVertex
 10
755.78097
 20
123.08804
 30
0.0
  0
VERTEX
  5
36F
100
AcDbEntity
  8
LAY-1
  6
CONTINUOUS
 62
     7
100
AcDbVertex
100
AcDb2dVertex
 10
755.81337
 20
122.96924
 30
0.0
  0
VERTEX
  5
370
100
AcDbEntity
  8
LAY-1
  6
CONTINUOUS
 62
     7
100
AcDbVertex
100
AcDb2dVertex
 10
755.82417
 20
122.85044
 30
0.0
  0
VERTEX
  5
371
100
AcDbEntity
  8
LAY-1
  6
CONTINUOUS
 62
     7
100
AcDbVertex
100
AcDb2dVertex
 10
755.83497
 20
122.71004
 30
0.0
  0
VERTEX
  5
372
100
AcDbEntity
  8
LAY-1
  6
CONTINUOUS
 62
     7
100
AcDbVertex
100
AcDb2dVertex
 10
755.85657
 20
122.56964
 30
0.0
  0
VERTEX
  5
373
100
AcDbEntity
  8
LAY-1
  6
CONTINUOUS
 62
     7
100
AcDbVertex
100
AcDb2dVertex
 10
755.86737
 20
122.42924
 30
0.0
  0
VERTEX
  5
374
100
AcDbEntity
  8
LAY-1
  6
CONTINUOUS
 62
     7
100
AcDbVertex
100
AcDb2dVertex
 10
755.86737
 20
122.26724
 30
0.0
  0
VERTEX
  5
375
100
AcDbEntity
  8
LAY-1
  6
CONTINUOUS
 62
     7
100
AcDbVertex
100
AcDb2dVertex
 10
755.87817
 20
122.10524
 30
0.0
  0
VERTEX
  5
376
100
AcDbEntity
  8
LAY-1
  6
CONTINUOUS
 62
     7
100
AcDbVertex
100
AcDb2dVertex
 10
755.87817
 20
121.94324
 30
0.0
  0
VERTEX
  5
377
100
AcDbEntity
  8
LAY-1
  6
CONTINUOUS
 62
     7
100
AcDbVertex
100
AcDb2dVertex
 10
755.87817
 20
121.75964
 30
0.0
  0
VERTEX
  5
378
100
AcDbEntity
  8
LAY-1
  6
CONTINUOUS
 62
     7
100
AcDbVertex
100
AcDb2dVertex
 10
755.87817
 20
121.57604
 30
0.0
  0
VERTEX
  5
379
100
AcDbEntity
  8
LAY-1
  6
CONTINUOUS
 62
     7
100
AcDbVertex
100
AcDb2dVertex
 10
755.87817
 20
113.82164
 30
0.0
  0
VERTEX
  5
37A
100
AcDbEntity
  8
LAY-1
  6
CONTINUOUS
 62
     7
100
AcDbVertex
100
AcDb2dVertex
 10
751.61217
 20
113.82164
 30
0.0
  0
VERTEX
  5
37B
100
AcDbEntity
  8
LAY-1
  6
CONTINUOUS
 62
     7
100
AcDbVertex
100
AcDb2dVertex
 10
751.61217
 20
121.48964
 30
0.0
  0
VERTEX
  5
37C
100
AcDbEntity
  8
LAY-1
  6
CONTINUOUS
 62
     7
100
AcDbVertex
100
AcDb2dVertex
 10
751.61217
 20
121.81364
 30
0.0
  0
VERTEX
  5
37D
100
AcDbEntity
  8
LAY-1
  6
CONTINUOUS
 62
     7
100
AcDbVertex
100
AcDb2dVertex
 10
751.57977
 20
122.11604
 30
0.0
  0
VERTEX
  5
37E
100
AcDbEntity
  8
LAY-1
  6
CONTINUOUS
 62
     7
100
AcDbVertex
100
AcDb2dVertex
 10
751.53657
 20
122.38604
 30
0.0
  0
VERTEX
  5
37F
100
AcDbEntity
  8
LAY-1
  6
CONTINUOUS
 62
     7
100
AcDbVertex
100
AcDb2dVertex
 10
751.48257
 20
122.63444
 30
0.0
  0
VERTEX
  5
380
100
AcDbEntity
  8
LAY-1
  6
CONTINUOUS
 62
     7
100
AcDbVertex
100
AcDb2dVertex
 10
751.41777
 20
122.88284
 30
0.0
  0
VERTEX
  5
381
100
AcDbEntity
  8
LAY-1
  6
CONTINUOUS
 62
     7
100
AcDbVertex
100
AcDb2dVertex
 10
751.32057
 20
123.08804
 30
0.0
  0
VERTEX
  5
382
100
AcDbEntity
  8
LAY-1
  6
CONTINUOUS
 62
     7
100
AcDbVertex
100
AcDb2dVertex
 10
751.23417
 20
123.28244
 30
0.0
  0
VERTEX
  5
383
100
AcDbEntity
  8
LAY-1
  6
CONTINUOUS
 62
     7
100
AcDbVertex
100
AcDb2dVertex
 10
751.11537
 20
123.45524
 30
0.0
  0
VERTEX
  5
384
100
AcDbEntity
  8
LAY-1
  6
CONTINUOUS
 62
     7
100
AcDbVertex
100
AcDb2dVertex
 10
750.97497
 20
123.60644
 30
0.0
  0
VERTEX
  5
385
100
AcDbEntity
  8
LAY-1
  6
CONTINUOUS
 62
     7
100
AcDbVertex
100
AcDb2dVertex
 10
750.80217
 20
123.75764
 30
0.0
  0
VERTEX
  5
386
100
AcDbEntity
  8
LAY-1
  6
CONTINUOUS
 62
     7
100
AcDbVertex
100
AcDb2dVertex
 10
750.62937
 20
123.89804
 30
0.0
  0
VERTEX
  5
387
100
AcDbEntity
  8
LAY-1
  6
CONTINUOUS
 62
     7
100
AcDbVertex
100
AcDb2dVertex
 10
750.42417
 20
124.03844
 30
0.0
  0
VERTEX
  5
388
100
AcDbEntity
  8
LAY-1
  6
CONTINUOUS
 62
     7
100
AcDbVertex
100
AcDb2dVertex
 10
750.18657
 20
124.15724
 30
0.0
  0
VERTEX
  5
389
100
AcDbEntity
  8
LAY-1
  6
CONTINUOUS
 62
     7
100
AcDbVertex
100
AcDb2dVertex
 10
749.93817
 20
124.27604
 30
0.0
  0
VERTEX
  5
38A
100
AcDbEntity
  8
LAY-1
  6
CONTINUOUS
 62
     7
100
AcDbVertex
100
AcDb2dVertex
 10
749.63577
 20
124.38404
 30
0.0
  0
VERTEX
  5
38B
100
AcDbEntity
  8
LAY-1
  6
CONTINUOUS
 62
     7
100
AcDbVertex
100
AcDb2dVertex
 10
749.33337
 20
124.48124
 30
0.0
  0
VERTEX
  5
38C
100
AcDbEntity
  8
LAY-1
  6
CONTINUOUS
 62
     7
100
AcDbVertex
100
AcDb2dVertex
 10
749.02017
 20
124.57844
 30
0.0
  0
VERTEX
  5
38D
100
AcDbEntity
  8
LAY-1
  6
CONTINUOUS
 62
     7
100
AcDbVertex
100
AcDb2dVertex
 10
748.67457
 20
124.65404
 30
0.0
  0
VERTEX
  5
38E
100
AcDbEntity
  8
LAY-1
  6
CONTINUOUS
 62
     7
100
AcDbVertex
100
AcDb2dVertex
 10
748.32897
 20
124.71884
 30
0.0
  0
VERTEX
  5
38F
100
AcDbEntity
  8
LAY-1
  6
CONTINUOUS
 62
     7
100
AcDbVertex
100
AcDb2dVertex
 10
747.96177
 20
124.77284
 30
0.0
  0
VERTEX
  5
390
100
AcDbEntity
  8
LAY-1
  6
CONTINUOUS
 62
     7
100
AcDbVertex
100
AcDb2dVertex
 10
747.58377
 20
124.81604
 30
0.0
  0
VERTEX
  5
391
100
AcDbEntity
  8
LAY-1
  6
CONTINUOUS
 62
     7
100
AcDbVertex
100
AcDb2dVertex
 10
747.18417
 20
124.84844
 30
0.0
  0
VERTEX
  5
392
100
AcDbEntity
  8
LAY-1
  6
CONTINUOUS
 62
     7
100
AcDbVertex
100
AcDb2dVertex
 10
746.77377
 20
124.87004
 30
0.0
  0
VERTEX
  5
393
100
AcDbEntity
  8
LAY-1
  6
CONTINUOUS
 62
     7
100
AcDbVertex
100
AcDb2dVertex
 10
746.37417
 20
124.87004
 30
0.0
  0
VERTEX
  5
394
100
AcDbEntity
  8
LAY-1
  6
CONTINUOUS
 62
     7
100
AcDbVertex
100
AcDb2dVertex
 10
746.01777
 20
124.87004
 30
0.0
  0
VERTEX
  5
395
100
AcDbEntity
  8
LAY-1
  6
CONTINUOUS
 62
     7
100
AcDbVertex
100
AcDb2dVertex
 10
745.69377
 20
124.85924
 30
0.0
  0
VERTEX
  5
396
100
AcDbEntity
  8
LAY-1
  6
CONTINUOUS
 62
     7
100
AcDbVertex
100
AcDb2dVertex
 10
745.35897
 20
124.83764
 30
0.0
  0
VERTEX
  5
397
100
AcDbEntity
  8
LAY-1
  6
CONTINUOUS
 62
     7
100
AcDbVertex
100
AcDb2dVertex
 10
745.03497
 20
124.81604
 30
0.0
  0
VERTEX
  5
398
100
AcDbEntity
  8
LAY-1
  6
CONTINUOUS
 62
     7
100
AcDbVertex
100
AcDb2dVertex
 10
744.72177
 20
124.78364
 30
0.0
  0
VERTEX
  5
399
100
AcDbEntity
  8
LAY-1
  6
CONTINUOUS
 62
     7
100
AcDbVertex
100
AcDb2dVertex
 10
744.40857
 20
124.74044
 30
0.0
  0
VERTEX
  5
39A
100
AcDbEntity
  8
LAY-1
  6
CONTINUOUS
 62
     7
100
AcDbVertex
100
AcDb2dVertex
 10
744.11697
 20
124.70804
 30
0.0
  0
VERTEX
  5
39B
100
AcDbEntity
  8
LAY-1
  6
CONTINUOUS
 62
     7
100
AcDbVertex
100
AcDb2dVertex
 10
743.81457
 20
124.65404
 30
0.0
  0
VERTEX
  5
39C
100
AcDbEntity
  8
LAY-1
  6
CONTINUOUS
 62
     7
100
AcDbVertex
100
AcDb2dVertex
 10
743.52297
 20
124.60004
 30
0.0
  0
VERTEX
  5
39D
100
AcDbEntity
  8
LAY-1
  6
CONTINUOUS
 62
     7
100
AcDbVertex
100
AcDb2dVertex
 10
743.24217
 20
124.53524
 30
0.0
  0
VERTEX
  5
39E
100
AcDbEntity
  8
LAY-1
  6
CONTINUOUS
 62
     7
100
AcDbVertex
100
AcDb2dVertex
 10
742.95057
 20
124.45964
 30
0.0
  0
VERTEX
  5
39F
100
AcDbEntity
  8
LAY-1
  6
CONTINUOUS
 62
     7
100
AcDbVertex
100
AcDb2dVertex
 10
742.69137
 20
124.38404
 30
0.0
  0
VERTEX
  5
3A0
100
AcDbEntity
  8
LAY-1
  6
CONTINUOUS
 62
     7
100
AcDbVertex
100
AcDb2dVertex
 10
742.41057
 20
124.29764
 30
0.0
  0
VERTEX
  5
3A1
100
AcDbEntity
  8
LAY-1
  6
CONTINUOUS
 62
     7
100
AcDbVertex
100
AcDb2dVertex
 10
742.16217
 20
124.21124
 30
0.0
  0
VERTEX
  5
3A2
100
AcDbEntity
  8
LAY-1
  6
CONTINUOUS
 62
     7
100
AcDbVertex
100
AcDb2dVertex
 10
741.89217
 20
124.10324
 30
0.0
  0
VERTEX
  5
3A3
100
AcDbEntity
  8
LAY-1
  6
CONTINUOUS
 62
     7
100
AcDbVertex
100
AcDb2dVertex
 10
741.64377
 20
124.00604
 30
0.0
  0
VERTEX
  5
3A4
100
AcDbEntity
  8
LAY-1
  6
CONTINUOUS
 62
     7
100
AcDbVertex
100
AcDb2dVertex
 10
741.40617
 20
123.89804
 30
0.0
  0
VERTEX
  5
3A5
100
AcDbEntity
  8
LAY-1
  6
CONTINUOUS
 62
     7
100
AcDbVertex
100
AcDb2dVertex
 10
741.17937
 20
123.76844
 30
0.0
  0
VERTEX
  5
3A6
100
AcDbEntity
  8
LAY-1
  6
CONTINUOUS
 62
     7
100
AcDbVertex
100
AcDb2dVertex
 10
740.98497
 20
123.61724
 30
0.0
  0
VERTEX
  5
3A7
100
AcDbEntity
  8
LAY-1
  6
CONTINUOUS
 62
     7
100
AcDbVertex
100
AcDb2dVertex
 10
740.77977
 20
123.47684
 30
0.0
  0
VERTEX
  5
3A8
100
AcDbEntity
  8
LAY-1
  6
CONTINUOUS
 62
     7
100
AcDbVertex
100
AcDb2dVertex
 10
740.61777
 20
123.30404
 30
0.0
  0
VERTEX
  5
3A9
100
AcDbEntity
  8
LAY-1
  6
CONTINUOUS
 62
     7
100
AcDbVertex
100
AcDb2dVertex
 10
740.43417
 20
123.13124
 30
0.0
  0
VERTEX
  5
3AA
100
AcDbEntity
  8
LAY-1
  6
CONTINUOUS
 62
     7
100
AcDbVertex
100
AcDb2dVertex
 10
740.29377
 20
122.95844
 30
0.0
  0
VERTEX
  5
3AB
100
AcDbEntity
  8
LAY-1
  6
CONTINUOUS
 62
     7
100
AcDbVertex
100
AcDb2dVertex
 10
740.15337
 20
122.75324
 30
0.0
  0
VERTEX
  5
3AC
100
AcDbEntity
  8
LAY-1
  6
CONTINUOUS
 62
     7
100
AcDbVertex
100
AcDb2dVertex
 10
740.04537
 20
122.53724
 30
0.0
  0
VERTEX
  5
3AD
100
AcDbEntity
  8
LAY-1
  6
CONTINUOUS
 62
     7
100
AcDbVertex
100
AcDb2dVertex
 10
739.94817
 20
122.31044
 30
0.0
  0
VERTEX
  5
3AE
100
AcDbEntity
  8
LAY-1
  6
CONTINUOUS
 62
     7
100
AcDbVertex
100
AcDb2dVertex
 10
739.85097
 20
122.07284
 30
0.0
  0
VERTEX
  5
3AF
100
AcDbEntity
  8
LAY-1
  6
CONTINUOUS
 62
     7
100
AcDbVertex
100
AcDb2dVertex
 10
739.78617
 20
121.83524
 30
0.0
  0
VERTEX
  5
3B0
100
AcDbEntity
  8
LAY-1
  6
CONTINUOUS
 62
     7
100
AcDbVertex
100
AcDb2dVertex
 10
739.73217
 20
121.56524
 30
0.0
  0
VERTEX
  5
3B1
100
AcDbEntity
  8
LAY-1
  6
CONTINUOUS
 62
     7
100
AcDbVertex
100
AcDb2dVertex
 10
739.68897
 20
121.29524
 30
0.0
  0
VERTEX
  5
3B2
100
AcDbEntity
  8
LAY-1
  6
CONTINUOUS
 62
     7
100
AcDbVertex
100
AcDb2dVertex
 10
739.66737
 20
121.00364
 30
0.0
  0
VERTEX
  5
3B3
100
AcDbEntity
  8
LAY-1
  6
CONTINUOUS
 62
     7
100
AcDbVertex
100
AcDb2dVertex
 10
739.66737
 20
120.71204
 30
0.0
  0
VERTEX
  5
3B4
100
AcDbEntity
  8
LAY-1
  6
CONTINUOUS
 62
     7
100
AcDbVertex
100
AcDb2dVertex
 10
739.66737
 20
113.82164
 30
0.0
  0
VERTEX
  5
3B5
100
AcDbEntity
  8
LAY-1
  6
CONTINUOUS
 62
     7
100
AcDbVertex
100
AcDb2dVertex
 10
735.39057
 20
113.82164
 30
0.0
  0
SEQEND
  5
3B6
100
AcDbEntity
  8
LAY-1
  6
CONTINUOUS
 62
     7
  0
POLYLINE
  5
3B7
100
AcDbEntity
  8
LAY-1
  6
CONTINUOUS
 62
     7
100
AcDb2dPolyline
 66
     1
 10
0.0
 20
0.0
 30
0.0
 70
   128
  0
VERTEX
  5
3B8
100
AcDbEntity
  8
LAY-1
  6
CONTINUOUS
 62
     7
100
AcDbVertex
100
AcDb2dVertex
 10
735.39057
 20
113.82164
 30
0.0
  0
VERTEX
  5
3B9
100
AcDbEntity
  8
LAY-1
  6
CONTINUOUS
 62
     7
100
AcDbVertex
100
AcDb2dVertex
 10
735.39057
 20
126.43604
 30
0.0
  0
VERTEX
  5
3BA
100
AcDbEntity
  8
LAY-1
  6
CONTINUOUS
 62
     7
100
AcDbVertex
100
AcDb2dVertex
 10
739.24617
 20
126.43604
 30
0.0
  0
VERTEX
  5
3BB
100
AcDbEntity
  8
LAY-1
  6
CONTINUOUS
 62
     7
100
AcDbVertex
100
AcDb2dVertex
 10
739.24617
 20
124.64324
 30
0.0
  0
VERTEX
  5
3BC
100
AcDbEntity
  8
LAY-1
  6
CONTINUOUS
 62
     7
100
AcDbVertex
100
AcDb2dVertex
 10
739.59177
 20
124.90244
 30
0.0
  0
VERTEX
  5
3BD
100
AcDbEntity
  8
LAY-1
  6
CONTINUOUS
 62
     7
100
AcDbVertex
100
AcDb2dVertex
 10
739.96977
 20
125.14004
 30
0.0
  0
VERTEX
  5
3BE
100
AcDbEntity
  8
LAY-1
  6
CONTINUOUS
 62
     7
100
AcDbVertex
100
AcDb2dVertex
 10
740.36937
 20
125.35604
 30
0.0
  0
VERTEX
  5
3BF
100
AcDbEntity
  8
LAY-1
  6
CONTINUOUS
 62
     7
100
AcDbVertex
100
AcDb2dVertex
 10
740.77977
 20
125.56124
 30
0.0
  0
VERTEX
  5
3C0
100
AcDbEntity
  8
LAY-1
  6
CONTINUOUS
 62
     7
100
AcDbVertex
100
AcDb2dVertex
 10
741.21177
 20
125.74484
 30
0.0
  0
VERTEX
  5
3C1
100
AcDbEntity
  8
LAY-1
  6
CONTINUOUS
 62
     7
100
AcDbVertex
100
AcDb2dVertex
 10
741.67617
 20
125.90684
 30
0.0
  0
VERTEX
  5
3C2
100
AcDbEntity
  8
LAY-1
  6
CONTINUOUS
 62
     7
100
AcDbVertex
100
AcDb2dVertex
 10
742.15137
 20
126.06884
 30
0.0
  0
VERTEX
  5
3C3
100
AcDbEntity
  8
LAY-1
  6
CONTINUOUS
 62
     7
100
AcDbVertex
100
AcDb2dVertex
 10
742.63737
 20
126.19844
 30
0.0
  0
VERTEX
  5
3C4
100
AcDbEntity
  8
LAY-1
  6
CONTINUOUS
 62
     7
100
AcDbVertex
100
AcDb2dVertex
 10
743.14497
 20
126.32804
 30
0.0
  0
VERTEX
  5
3C5
100
AcDbEntity
  8
LAY-1
  6
CONTINUOUS
 62
     7
100
AcDbVertex
100
AcDb2dVertex
 10
743.67417
 20
126.43604
 30
0.0
  0
VERTEX
  5
3C6
100
AcDbEntity
  8
LAY-1
  6
CONTINUOUS
 62
     7
100
AcDbVertex
100
AcDb2dVertex
 10
744.23577
 20
126.52244
 30
0.0
  0
VERTEX
  5
3C7
100
AcDbEntity
  8
LAY-1
  6
CONTINUOUS
 62
     7
100
AcDbVertex
100
AcDb2dVertex
 10
744.80817
 20
126.59804
 30
0.0
  0
VERTEX
  5
3C8
100
AcDbEntity
  8
LAY-1
  6
CONTINUOUS
 62
     7
100
AcDbVertex
100
AcDb2dVertex
 10
745.38057
 20
126.65204
 30
0.0
  0
VERTEX
  5
3C9
100
AcDbEntity
  8
LAY-1
  6
CONTINUOUS
 62
     7
100
AcDbVertex
100
AcDb2dVertex
 10
745.99617
 20
126.69524
 30
0.0
  0
VERTEX
  5
3CA
100
AcDbEntity
  8
LAY-1
  6
CONTINUOUS
 62
     7
100
AcDbVertex
100
AcDb2dVertex
 10
746.61177
 20
126.71684
 30
0.0
  0
SEQEND
  5
3CB
100
AcDbEntity
  8
LAY-1
  6
CONTINUOUS
 62
     7
  0
POLYLINE
  5
3CC
100
AcDbEntity
  8
LAY-1
  6
CONTINUOUS
 62
     7
100
AcDb2dPolyline
 66
     1
 10
0.0
 20
0.0
 30
0.0
 70
   128
  0
VERTEX
  5
3CD
100
AcDbEntity
  8
LAY-1
  6
CONTINUOUS
 62
     7
100
AcDbVertex
100
AcDb2dVertex
 10
718.62897
 20
115.46324
 30
0.0
  0
VERTEX
  5
3CE
100
AcDbEntity
  8
LAY-1
  6
CONTINUOUS
 62
     7
100
AcDbVertex
100
AcDb2dVertex
 10
718.98537
 20
115.42004
 30
0.0
  0
VERTEX
  5
3CF
100
AcDbEntity
  8
LAY-1
  6
CONTINUOUS
 62
     7
100
AcDbVertex
100
AcDb2dVertex
 10
719.35257
 20
115.36604
 30
0.0
  0
VERTEX
  5
3D0
100
AcDbEntity
  8
LAY-1
  6
CONTINUOUS
 62
     7
100
AcDbVertex
100
AcDb2dVertex
 10
719.70897
 20
115.33364
 30
0.0
  0
VERTEX
  5
3D1
100
AcDbEntity
  8
LAY-1
  6
CONTINUOUS
 62
     7
100
AcDbVertex
100
AcDb2dVertex
 10
720.09777
 20
115.31204
 30
0.0
  0
VERTEX
  5
3D2
100
AcDbEntity
  8
LAY-1
  6
CONTINUOUS
 62
     7
100
AcDbVertex
100
AcDb2dVertex
 10
720.47577
 20
115.30124
 30
0.0
  0
VERTEX
  5
3D3
100
AcDbEntity
  8
LAY-1
  6
CONTINUOUS
 62
     7
100
AcDbVertex
100
AcDb2dVertex
 10
720.87537
 20
115.30124
 30
0.0
  0
VERTEX
  5
3D4
100
AcDbEntity
  8
LAY-1
  6
CONTINUOUS
 62
     7
100
AcDbVertex
100
AcDb2dVertex
 10
721.26417
 20
115.30124
 30
0.0
  0
VERTEX
  5
3D5
100
AcDbEntity
  8
LAY-1
  6
CONTINUOUS
 62
     7
100
AcDbVertex
100
AcDb2dVertex
 10
721.66377
 20
115.31204
 30
0.0
  0
VERTEX
  5
3D6
100
AcDbEntity
  8
LAY-1
  6
CONTINUOUS
 62
     7
100
AcDbVertex
100
AcDb2dVertex
 10
722.03097
 20
115.33364
 30
0.0
  0
VERTEX
  5
3D7
100
AcDbEntity
  8
LAY-1
  6
CONTINUOUS
 62
     7
100
AcDbVertex
100
AcDb2dVertex
 10
722.39817
 20
115.36604
 30
0.0
  0
VERTEX
  5
3D8
100
AcDbEntity
  8
LAY-1
  6
CONTINUOUS
 62
     7
100
AcDbVertex
100
AcDb2dVertex
 10
722.75457
 20
115.42004
 30
0.0
  0
VERTEX
  5
3D9
100
AcDbEntity
  8
LAY-1
  6
CONTINUOUS
 62
     7
100
AcDbVertex
100
AcDb2dVertex
 10
723.12177
 20
115.47404
 30
0.0
  0
VERTEX
  5
3DA
100
AcDbEntity
  8
LAY-1
  6
CONTINUOUS
 62
     7
100
AcDbVertex
100
AcDb2dVertex
 10
723.45657
 20
115.53884
 30
0.0
  0
VERTEX
  5
3DB
100
AcDbEntity
  8
LAY-1
  6
CONTINUOUS
 62
     7
100
AcDbVertex
100
AcDb2dVertex
 10
723.79137
 20
115.60364
 30
0.0
  0
VERTEX
  5
3DC
100
AcDbEntity
  8
LAY-1
  6
CONTINUOUS
 62
     7
100
AcDbVertex
100
AcDb2dVertex
 10
724.12617
 20
115.67924
 30
0.0
  0
VERTEX
  5
3DD
100
AcDbEntity
  8
LAY-1
  6
CONTINUOUS
 62
     7
100
AcDbVertex
100
AcDb2dVertex
 10
724.43937
 20
115.76564
 30
0.0
  0
VERTEX
  5
3DE
100
AcDbEntity
  8
LAY-1
  6
CONTINUOUS
 62
     7
100
AcDbVertex
100
AcDb2dVertex
 10
724.75257
 20
115.87364
 30
0.0
  0
VERTEX
  5
3DF
100
AcDbEntity
  8
LAY-1
  6
CONTINUOUS
 62
     7
100
AcDbVertex
100
AcDb2dVertex
 10
725.05497
 20
115.98164
 30
0.0
  0
VERTEX
  5
3E0
100
AcDbEntity
  8
LAY-1
  6
CONTINUOUS
 62
     7
100
AcDbVertex
100
AcDb2dVertex
 10
725.34657
 20
116.10044
 30
0.0
  0
VERTEX
  5
3E1
100
AcDbEntity
  8
LAY-1
  6
CONTINUOUS
 62
     7
100
AcDbVertex
100
AcDb2dVertex
 10
725.62737
 20
116.21924
 30
0.0
  0
VERTEX
  5
3E2
100
AcDbEntity
  8
LAY-1
  6
CONTINUOUS
 62
     7
100
AcDbVertex
100
AcDb2dVertex
 10
725.89737
 20
116.35964
 30
0.0
  0
VERTEX
  5
3E3
100
AcDbEntity
  8
LAY-1
  6
CONTINUOUS
 62
     7
100
AcDbVertex
100
AcDb2dVertex
 10
726.16737
 20
116.51084
 30
0.0
  0
VERTEX
  5
3E4
100
AcDbEntity
  8
LAY-1
  6
CONTINUOUS
 62
     7
100
AcDbVertex
100
AcDb2dVertex
 10
726.42657
 20
116.67284
 30
0.0
  0
VERTEX
  5
3E5
100
AcDbEntity
  8
LAY-1
  6
CONTINUOUS
 62
     7
100
AcDbVertex
100
AcDb2dVertex
 10
726.67497
 20
116.82404
 30
0.0
  0
VERTEX
  5
3E6
100
AcDbEntity
  8
LAY-1
  6
CONTINUOUS
 62
     7
100
AcDbVertex
100
AcDb2dVertex
 10
726.90177
 20
117.00764
 30
0.0
  0
VERTEX
  5
3E7
100
AcDbEntity
  8
LAY-1
  6
CONTINUOUS
 62
     7
100
AcDbVertex
100
AcDb2dVertex
 10
727.09617
 20
117.20204
 30
0.0
  0
VERTEX
  5
3E8
100
AcDbEntity
  8
LAY-1
  6
CONTINUOUS
 62
     7
100
AcDbVertex
100
AcDb2dVertex
 10
727.27977
 20
117.38564
 30
0.0
  0
VERTEX
  5
3E9
100
AcDbEntity
  8
LAY-1
  6
CONTINUOUS
 62
     7
100
AcDbVertex
100
AcDb2dVertex
 10
727.46337
 20
117.60164
 30
0.0
  0
VERTEX
  5
3EA
100
AcDbEntity
  8
LAY-1
  6
CONTINUOUS
 62
     7
100
AcDbVertex
100
AcDb2dVertex
 10
727.61457
 20
117.80684
 30
0.0
  0
VERTEX
  5
3EB
100
AcDbEntity
  8
LAY-1
  6
CONTINUOUS
 62
     7
100
AcDbVertex
100
AcDb2dVertex
 10
727.75497
 20
118.04444
 30
0.0
  0
VERTEX
  5
3EC
100
AcDbEntity
  8
LAY-1
  6
CONTINUOUS
 62
     7
100
AcDbVertex
100
AcDb2dVertex
 10
727.88457
 20
118.27124
 30
0.0
  0
VERTEX
  5
3ED
100
AcDbEntity
  8
LAY-1
  6
CONTINUOUS
 62
     7
100
AcDbVertex
100
AcDb2dVertex
 10
727.99257
 20
118.51964
 30
0.0
  0
VERTEX
  5
3EE
100
AcDbEntity
  8
LAY-1
  6
CONTINUOUS
 62
     7
100
AcDbVertex
100
AcDb2dVertex
 10
728.06817
 20
118.77884
 30
0.0
  0
VERTEX
  5
3EF
100
AcDbEntity
  8
LAY-1
  6
CONTINUOUS
 62
     7
100
AcDbVertex
100
AcDb2dVertex
 10
728.15457
 20
119.03804
 30
0.0
  0
VERTEX
  5
3F0
100
AcDbEntity
  8
LAY-1
  6
CONTINUOUS
 62
     7
100
AcDbVertex
100
AcDb2dVertex
 10
728.20857
 20
119.32964
 30
0.0
  0
VERTEX
  5
3F1
100
AcDbEntity
  8
LAY-1
  6
CONTINUOUS
 62
     7
100
AcDbVertex
100
AcDb2dVertex
 10
728.25177
 20
119.61044
 30
0.0
  0
VERTEX
  5
3F2
100
AcDbEntity
  8
LAY-1
  6
CONTINUOUS
 62
     7
100
AcDbVertex
100
AcDb2dVertex
 10
728.27337
 20
119.89124
 30
0.0
  0
VERTEX
  5
3F3
100
AcDbEntity
  8
LAY-1
  6
CONTINUOUS
 62
     7
100
AcDbVertex
100
AcDb2dVertex
 10
728.29497
 20
120.20444
 30
0.0
  0
VERTEX
  5
3F4
100
AcDbEntity
  8
LAY-1
  6
CONTINUOUS
 62
     7
100
AcDbVertex
100
AcDb2dVertex
 10
728.27337
 20
120.49604
 30
0.0
  0
VERTEX
  5
3F5
100
AcDbEntity
  8
LAY-1
  6
CONTINUOUS
 62
     7
100
AcDbVertex
100
AcDb2dVertex
 10
728.25177
 20
120.77684
 30
0.0
  0
VERTEX
  5
3F6
100
AcDbEntity
  8
LAY-1
  6
CONTINUOUS
 62
     7
100
AcDbVertex
100
AcDb2dVertex
 10
728.20857
 20
121.03604
 30
0.0
  0
VERTEX
  5
3F7
100
AcDbEntity
  8
LAY-1
  6
CONTINUOUS
 62
     7
100
AcDbVertex
100
AcDb2dVertex
 10
728.15457
 20
121.30604
 30
0.0
  0
VERTEX
  5
3F8
100
AcDbEntity
  8
LAY-1
  6
CONTINUOUS
 62
     7
100
AcDbVertex
100
AcDb2dVertex
 10
728.06817
 20
121.55444
 30
0.0
  0
VERTEX
  5
3F9
100
AcDbEntity
  8
LAY-1
  6
CONTINUOUS
 62
     7
100
AcDbVertex
100
AcDb2dVertex
 10
727.99257
 20
121.80284
 30
0.0
  0
VERTEX
  5
3FA
100
AcDbEntity
  8
LAY-1
  6
CONTINUOUS
 62
     7
100
AcDbVertex
100
AcDb2dVertex
 10
727.88457
 20
122.02964
 30
0.0
  0
VERTEX
  5
3FB
100
AcDbEntity
  8
LAY-1
  6
CONTINUOUS
 62
     7
100
AcDbVertex
100
AcDb2dVertex
 10
727.75497
 20
122.25644
 30
0.0
  0
VERTEX
  5
3FC
100
AcDbEntity
  8
LAY-1
  6
CONTINUOUS
 62
     7
100
AcDbVertex
100
AcDb2dVertex
 10
727.61457
 20
122.48324
 30
0.0
  0
VERTEX
  5
3FD
100
AcDbEntity
  8
LAY-1
  6
CONTINUOUS
 62
     7
100
AcDbVertex
100
AcDb2dVertex
 10
727.46337
 20
122.67764
 30
0.0
  0
VERTEX
  5
3FE
100
AcDbEntity
  8
LAY-1
  6
CONTINUOUS
 62
     7
100
AcDbVertex
100
AcDb2dVertex
 10
727.27977
 20
122.88284
 30
0.0
  0
VERTEX
  5
3FF
100
AcDbEntity
  8
LAY-1
  6
CONTINUOUS
 62
     7
100
AcDbVertex
100
AcDb2dVertex
 10
727.09617
 20
123.06644
 30
0.0
  0
VERTEX
  5
400
100
AcDbEntity
  8
LAY-1
  6
CONTINUOUS
 62
     7
100
AcDbVertex
100
AcDb2dVertex
 10
726.89097
 20
123.25004
 30
0.0
  0
VERTEX
  5
401
100
AcDbEntity
  8
LAY-1
  6
CONTINUOUS
 62
     7
100
AcDbVertex
100
AcDb2dVertex
 10
726.65337
 20
123.43364
 30
0.0
  0
VERTEX
  5
402
100
AcDbEntity
  8
LAY-1
  6
CONTINUOUS
 62
     7
100
AcDbVertex
100
AcDb2dVertex
 10
726.41577
 20
123.58484
 30
0.0
  0
VERTEX
  5
403
100
AcDbEntity
  8
LAY-1
  6
CONTINUOUS
 62
     7
100
AcDbVertex
100
AcDb2dVertex
 10
726.15657
 20
123.74684
 30
0.0
  0
VERTEX
  5
404
100
AcDbEntity
  8
LAY-1
  6
CONTINUOUS
 62
     7
100
AcDbVertex
100
AcDb2dVertex
 10
725.89737
 20
123.89804
 30
0.0
  0
VERTEX
  5
405
100
AcDbEntity
  8
LAY-1
  6
CONTINUOUS
 62
     7
100
AcDbVertex
100
AcDb2dVertex
 10
725.60577
 20
124.03844
 30
0.0
  0
VERTEX
  5
406
100
AcDbEntity
  8
LAY-1
  6
CONTINUOUS
 62
     7
100
AcDbVertex
100
AcDb2dVertex
 10
725.33577
 20
124.15724
 30
0.0
  0
VERTEX
  5
407
100
AcDbEntity
  8
LAY-1
  6
CONTINUOUS
 62
     7
100
AcDbVertex
100
AcDb2dVertex
 10
725.02257
 20
124.27604
 30
0.0
  0
VERTEX
  5
408
100
AcDbEntity
  8
LAY-1
  6
CONTINUOUS
 62
     7
100
AcDbVertex
100
AcDb2dVertex
 10
724.74177
 20
124.38404
 30
0.0
  0
VERTEX
  5
409
100
AcDbEntity
  8
LAY-1
  6
CONTINUOUS
 62
     7
100
AcDbVertex
100
AcDb2dVertex
 10
724.41777
 20
124.48124
 30
0.0
  0
VERTEX
  5
40A
100
AcDbEntity
  8
LAY-1
  6
CONTINUOUS
 62
     7
100
AcDbVertex
100
AcDb2dVertex
 10
724.09377
 20
124.57844
 30
0.0
  0
VERTEX
  5
40B
100
AcDbEntity
  8
LAY-1
  6
CONTINUOUS
 62
     7
100
AcDbVertex
100
AcDb2dVertex
 10
723.78057
 20
124.65404
 30
0.0
  0
VERTEX
  5
40C
100
AcDbEntity
  8
LAY-1
  6
CONTINUOUS
 62
     7
100
AcDbVertex
100
AcDb2dVertex
 10
723.44577
 20
124.71884
 30
0.0
  0
VERTEX
  5
40D
100
AcDbEntity
  8
LAY-1
  6
CONTINUOUS
 62
     7
100
AcDbVertex
100
AcDb2dVertex
 10
723.10017
 20
124.78364
 30
0.0
  0
VERTEX
  5
40E
100
AcDbEntity
  8
LAY-1
  6
CONTINUOUS
 62
     7
100
AcDbVertex
100
AcDb2dVertex
 10
722.74377
 20
124.83764
 30
0.0
  0
VERTEX
  5
40F
100
AcDbEntity
  8
LAY-1
  6
CONTINUOUS
 62
     7
100
AcDbVertex
100
AcDb2dVertex
 10
722.38737
 20
124.88084
 30
0.0
  0
VERTEX
  5
410
100
AcDbEntity
  8
LAY-1
  6
CONTINUOUS
 62
     7
100
AcDbVertex
100
AcDb2dVertex
 10
722.03097
 20
124.91324
 30
0.0
  0
VERTEX
  5
411
100
AcDbEntity
  8
LAY-1
  6
CONTINUOUS
 62
     7
100
AcDbVertex
100
AcDb2dVertex
 10
721.65297
 20
124.93484
 30
0.0
  0
VERTEX
  5
412
100
AcDbEntity
  8
LAY-1
  6
CONTINUOUS
 62
     7
100
AcDbVertex
100
AcDb2dVertex
 10
721.26417
 20
124.94564
 30
0.0
  0
VERTEX
  5
413
100
AcDbEntity
  8
LAY-1
  6
CONTINUOUS
 62
     7
100
AcDbVertex
100
AcDb2dVertex
 10
720.87537
 20
124.95644
 30
0.0
  0
VERTEX
  5
414
100
AcDbEntity
  8
LAY-1
  6
CONTINUOUS
 62
     7
100
AcDbVertex
100
AcDb2dVertex
 10
720.47577
 20
124.95644
 30
0.0
  0
VERTEX
  5
415
100
AcDbEntity
  8
LAY-1
  6
CONTINUOUS
 62
     7
100
AcDbVertex
100
AcDb2dVertex
 10
720.09777
 20
124.93484
 30
0.0
  0
VERTEX
  5
416
100
AcDbEntity
  8
LAY-1
  6
CONTINUOUS
 62
     7
100
AcDbVertex
100
AcDb2dVertex
 10
719.70897
 20
124.91324
 30
0.0
  0
VERTEX
  5
417
100
AcDbEntity
  8
LAY-1
  6
CONTINUOUS
 62
     7
100
AcDbVertex
100
AcDb2dVertex
 10
719.35257
 20
124.88084
 30
0.0
  0
VERTEX
  5
418
100
AcDbEntity
  8
LAY-1
  6
CONTINUOUS
 62
     7
100
AcDbVertex
100
AcDb2dVertex
 10
718.98537
 20
124.83764
 30
0.0
  0
VERTEX
  5
419
100
AcDbEntity
  8
LAY-1
  6
CONTINUOUS
 62
     7
100
AcDbVertex
100
AcDb2dVertex
 10
718.62897
 20
124.78364
 30
0.0
  0
VERTEX
  5
41A
100
AcDbEntity
  8
LAY-1
  6
CONTINUOUS
 62
     7
100
AcDbVertex
100
AcDb2dVertex
 10
718.28337
 20
124.72964
 30
0.0
  0
VERTEX
  5
41B
100
AcDbEntity
  8
LAY-1
  6
CONTINUOUS
 62
     7
100
AcDbVertex
100
AcDb2dVertex
 10
717.94857
 20
124.65404
 30
0.0
  0
VERTEX
  5
41C
100
AcDbEntity
  8
LAY-1
  6
CONTINUOUS
 62
     7
100
AcDbVertex
100
AcDb2dVertex
 10
717.61377
 20
124.57844
 30
0.0
  0
VERTEX
  5
41D
100
AcDbEntity
  8
LAY-1
  6
CONTINUOUS
 62
     7
100
AcDbVertex
100
AcDb2dVertex
 10
717.28977
 20
124.49204
 30
0.0
  0
VERTEX
  5
41E
100
AcDbEntity
  8
LAY-1
  6
CONTINUOUS
 62
     7
100
AcDbVertex
100
AcDb2dVertex
 10
716.98737
 20
124.39484
 30
0.0
  0
VERTEX
  5
41F
100
AcDbEntity
  8
LAY-1
  6
CONTINUOUS
 62
     7
100
AcDbVertex
100
AcDb2dVertex
 10
716.68497
 20
124.27604
 30
0.0
  0
VERTEX
  5
420
100
AcDbEntity
  8
LAY-1
  6
CONTINUOUS
 62
     7
100
AcDbVertex
100
AcDb2dVertex
 10
716.39337
 20
124.15724
 30
0.0
  0
VERTEX
  5
421
100
AcDbEntity
  8
LAY-1
  6
CONTINUOUS
 62
     7
100
AcDbVertex
100
AcDb2dVertex
 10
716.10177
 20
124.03844
 30
0.0
  0
VERTEX
  5
422
100
AcDbEntity
  8
LAY-1
  6
CONTINUOUS
 62
     7
100
AcDbVertex
100
AcDb2dVertex
 10
715.82097
 20
123.89804
 30
0.0
  0
VERTEX
  5
423
100
AcDbEntity
  8
LAY-1
  6
CONTINUOUS
 62
     7
100
AcDbVertex
100
AcDb2dVertex
 10
715.55097
 20
123.74684
 30
0.0
  0
VERTEX
  5
424
100
AcDbEntity
  8
LAY-1
  6
CONTINUOUS
 62
     7
100
AcDbVertex
100
AcDb2dVertex
 10
715.30257
 20
123.59564
 30
0.0
  0
VERTEX
  5
425
100
AcDbEntity
  8
LAY-1
  6
CONTINUOUS
 62
     7
100
AcDbVertex
100
AcDb2dVertex
 10
715.06497
 20
123.43364
 30
0.0
  0
VERTEX
  5
426
100
AcDbEntity
  8
LAY-1
  6
CONTINUOUS
 62
     7
100
AcDbVertex
100
AcDb2dVertex
 10
714.83817
 20
123.26084
 30
0.0
  0
VERTEX
  5
427
100
AcDbEntity
  8
LAY-1
  6
CONTINUOUS
 62
     7
100
AcDbVertex
100
AcDb2dVertex
 10
714.64377
 20
123.06644
 30
0.0
  0
VERTEX
  5
428
100
AcDbEntity
  8
LAY-1
  6
CONTINUOUS
 62
     7
100
AcDbVertex
100
AcDb2dVertex
 10
714.43857
 20
122.88284
 30
0.0
  0
VERTEX
  5
429
100
AcDbEntity
  8
LAY-1
  6
CONTINUOUS
 62
     7
100
AcDbVertex
100
AcDb2dVertex
 10
714.27657
 20
122.67764
 30
0.0
  0
VERTEX
  5
42A
100
AcDbEntity
  8
LAY-1
  6
CONTINUOUS
 62
     7
100
AcDbVertex
100
AcDb2dVertex
 10
714.11457
 20
122.47244
 30
0.0
  0
VERTEX
  5
42B
100
AcDbEntity
  8
LAY-1
  6
CONTINUOUS
 62
     7
100
AcDbVertex
100
AcDb2dVertex
 10
713.97417
 20
122.24564
 30
0.0
  0
VERTEX
  5
42C
100
AcDbEntity
  8
LAY-1
  6
CONTINUOUS
 62
     7
100
AcDbVertex
100
AcDb2dVertex
 10
713.84457
 20
122.01884
 30
0.0
  0
VERTEX
  5
42D
100
AcDbEntity
  8
LAY-1
  6
CONTINUOUS
 62
     7
100
AcDbVertex
100
AcDb2dVertex
 10
713.74737
 20
121.78124
 30
0.0
  0
VERTEX
  5
42E
100
AcDbEntity
  8
LAY-1
  6
CONTINUOUS
 62
     7
100
AcDbVertex
100
AcDb2dVertex
 10
713.65017
 20
121.52204
 30
0.0
  0
VERTEX
  5
42F
100
AcDbEntity
  8
LAY-1
  6
CONTINUOUS
 62
     7
100
AcDbVertex
100
AcDb2dVertex
 10
713.58537
 20
121.26284
 30
0.0
  0
VERTEX
  5
430
100
AcDbEntity
  8
LAY-1
  6
CONTINUOUS
 62
     7
100
AcDbVertex
100
AcDb2dVertex
 10
713.53137
 20
120.99284
 30
0.0
  0
VERTEX
  5
431
100
AcDbEntity
  8
LAY-1
  6
CONTINUOUS
 62
     7
100
AcDbVertex
100
AcDb2dVertex
 10
713.47737
 20
120.72284
 30
0.0
  0
VERTEX
  5
432
100
AcDbEntity
  8
LAY-1
  6
CONTINUOUS
 62
     7
100
AcDbVertex
100
AcDb2dVertex
 10
713.45577
 20
120.42044
 30
0.0
  0
VERTEX
  5
433
100
AcDbEntity
  8
LAY-1
  6
CONTINUOUS
 62
     7
100
AcDbVertex
100
AcDb2dVertex
 10
713.44497
 20
120.12884
 30
0.0
  0
SEQEND
  5
434
100
AcDbEntity
  8
LAY-1
  6
CONTINUOUS
 62
     7
  0
POLYLINE
  5
435
100
AcDbEntity
  8
LAY-1
  6
CONTINUOUS
 62
     7
100
AcDb2dPolyline
 66
     1
 10
0.0
 20
0.0
 30
0.0
 70
   128
  0
VERTEX
  5
436
100
AcDbEntity
  8
LAY-1
  6
CONTINUOUS
 62
     7
100
AcDbVertex
100
AcDb2dVertex
 10
713.44497
 20
120.12884
 30
0.0
  0
VERTEX
  5
437
100
AcDbEntity
  8
LAY-1
  6
CONTINUOUS
 62
     7
100
AcDbVertex
100
AcDb2dVertex
 10
713.45577
 20
119.83724
 30
0.0
  0
VERTEX
  5
438
100
AcDbEntity
  8
LAY-1
  6
CONTINUOUS
 62
     7
100
AcDbVertex
100
AcDb2dVertex
 10
713.47737
 20
119.54564
 30
0.0
  0
VERTEX
  5
439
100
AcDbEntity
  8
LAY-1
  6
CONTINUOUS
 62
     7
100
AcDbVertex
100
AcDb2dVertex
 10
713.53137
 20
119.27564
 30
0.0
  0
VERTEX
  5
43A
100
AcDbEntity
  8
LAY-1
  6
CONTINUOUS
 62
     7
100
AcDbVertex
100
AcDb2dVertex
 10
713.58537
 20
118.99484
 30
0.0
  0
VERTEX
  5
43B
100
AcDbEntity
  8
LAY-1
  6
CONTINUOUS
 62
     7
100
AcDbVertex
100
AcDb2dVertex
 10
713.65017
 20
118.73564
 30
0.0
  0
VERTEX
  5
43C
100
AcDbEntity
  8
LAY-1
  6
CONTINUOUS
 62
     7
100
AcDbVertex
100
AcDb2dVertex
 10
713.74737
 20
118.48724
 30
0.0
  0
VERTEX
  5
43D
100
AcDbEntity
  8
LAY-1
  6
CONTINUOUS
 62
     7
100
AcDbVertex
100
AcDb2dVertex
 10
713.84457
 20
118.24964
 30
0.0
  0
VERTEX
  5
43E
100
AcDbEntity
  8
LAY-1
  6
CONTINUOUS
 62
     7
100
AcDbVertex
100
AcDb2dVertex
 10
713.97417
 20
118.01204
 30
0.0
  0
VERTEX
  5
43F
100
AcDbEntity
  8
LAY-1
  6
CONTINUOUS
 62
     7
100
AcDbVertex
100
AcDb2dVertex
 10
714.11457
 20
117.78524
 30
0.0
  0
VERTEX
  5
440
100
AcDbEntity
  8
LAY-1
  6
CONTINUOUS
 62
     7
100
AcDbVertex
100
AcDb2dVertex
 10
714.27657
 20
117.58004
 30
0.0
  0
VERTEX
  5
441
100
AcDbEntity
  8
LAY-1
  6
CONTINUOUS
 62
     7
100
AcDbVertex
100
AcDb2dVertex
 10
714.43857
 20
117.37484
 30
0.0
  0
VERTEX
  5
442
100
AcDbEntity
  8
LAY-1
  6
CONTINUOUS
 62
     7
100
AcDbVertex
100
AcDb2dVertex
 10
714.64377
 20
117.19124
 30
0.0
  0
VERTEX
  5
443
100
AcDbEntity
  8
LAY-1
  6
CONTINUOUS
 62
     7
100
AcDbVertex
100
AcDb2dVertex
 10
714.83817
 20
116.99684
 30
0.0
  0
VERTEX
  5
444
100
AcDbEntity
  8
LAY-1
  6
CONTINUOUS
 62
     7
100
AcDbVertex
100
AcDb2dVertex
 10
715.06497
 20
116.82404
 30
0.0
  0
VERTEX
  5
445
100
AcDbEntity
  8
LAY-1
  6
CONTINUOUS
 62
     7
100
AcDbVertex
100
AcDb2dVertex
 10
715.30257
 20
116.66204
 30
0.0
  0
VERTEX
  5
446
100
AcDbEntity
  8
LAY-1
  6
CONTINUOUS
 62
     7
100
AcDbVertex
100
AcDb2dVertex
 10
715.55097
 20
116.51084
 30
0.0
  0
VERTEX
  5
447
100
AcDbEntity
  8
LAY-1
  6
CONTINUOUS
 62
     7
100
AcDbVertex
100
AcDb2dVertex
 10
715.82097
 20
116.35964
 30
0.0
  0
VERTEX
  5
448
100
AcDbEntity
  8
LAY-1
  6
CONTINUOUS
 62
     7
100
AcDbVertex
100
AcDb2dVertex
 10
716.10177
 20
116.21924
 30
0.0
  0
VERTEX
  5
449
100
AcDbEntity
  8
LAY-1
  6
CONTINUOUS
 62
     7
100
AcDbVertex
100
AcDb2dVertex
 10
716.39337
 20
116.10044
 30
0.0
  0
VERTEX
  5
44A
100
AcDbEntity
  8
LAY-1
  6
CONTINUOUS
 62
     7
100
AcDbVertex
100
AcDb2dVertex
 10
716.68497
 20
115.98164
 30
0.0
  0
VERTEX
  5
44B
100
AcDbEntity
  8
LAY-1
  6
CONTINUOUS
 62
     7
100
AcDbVertex
100
AcDb2dVertex
 10
716.98737
 20
115.87364
 30
0.0
  0
VERTEX
  5
44C
100
AcDbEntity
  8
LAY-1
  6
CONTINUOUS
 62
     7
100
AcDbVertex
100
AcDb2dVertex
 10
717.28977
 20
115.76564
 30
0.0
  0
VERTEX
  5
44D
100
AcDbEntity
  8
LAY-1
  6
CONTINUOUS
 62
     7
100
AcDbVertex
100
AcDb2dVertex
 10
717.61377
 20
115.66844
 30
0.0
  0
VERTEX
  5
44E
100
AcDbEntity
  8
LAY-1
  6
CONTINUOUS
 62
     7
100
AcDbVertex
100
AcDb2dVertex
 10
717.94857
 20
115.60364
 30
0.0
  0
VERTEX
  5
44F
100
AcDbEntity
  8
LAY-1
  6
CONTINUOUS
 62
     7
100
AcDbVertex
100
AcDb2dVertex
 10
718.28337
 20
115.53884
 30
0.0
  0
VERTEX
  5
450
100
AcDbEntity
  8
LAY-1
  6
CONTINUOUS
 62
     7
100
AcDbVertex
100
AcDb2dVertex
 10
718.62897
 20
115.46324
 30
0.0
  0
SEQEND
  5
451
100
AcDbEntity
  8
LAY-1
  6
CONTINUOUS
 62
     7
  0
POLYLINE
  5
452
100
AcDbEntity
  8
LAY-1
  6
CONTINUOUS
 62
     7
100
AcDb2dPolyline
 66
     1
 10
0.0
 20
0.0
 30
0.0
 70
   128
  0
VERTEX
  5
453
100
AcDbEntity
  8
LAY-1
  6
CONTINUOUS
 62
     7
100
AcDbVertex
100
AcDb2dVertex
 10
722.14977
 20
126.70604
 30
0.0
  0
VERTEX
  5
454
100
AcDbEntity
  8
LAY-1
  6
CONTINUOUS
 62
     7
100
AcDbVertex
100
AcDb2dVertex
 10
722.75457
 20
126.67364
 30
0.0
  0
VERTEX
  5
455
100
AcDbEntity
  8
LAY-1
  6
CONTINUOUS
 62
     7
100
AcDbVertex
100
AcDb2dVertex
 10
723.34857
 20
126.61964
 30
0.0
  0
VERTEX
  5
456
100
AcDbEntity
  8
LAY-1
  6
CONTINUOUS
 62
     7
100
AcDbVertex
100
AcDb2dVertex
 10
723.93177
 20
126.56564
 30
0.0
  0
VERTEX
  5
457
100
AcDbEntity
  8
LAY-1
  6
CONTINUOUS
 62
     7
100
AcDbVertex
100
AcDb2dVertex
 10
724.50417
 20
126.49004
 30
0.0
  0
VERTEX
  5
458
100
AcDbEntity
  8
LAY-1
  6
CONTINUOUS
 62
     7
100
AcDbVertex
100
AcDb2dVertex
 10
725.06577
 20
126.40364
 30
0.0
  0
VERTEX
  5
459
100
AcDbEntity
  8
LAY-1
  6
CONTINUOUS
 62
     7
100
AcDbVertex
100
AcDb2dVertex
 10
725.59497
 20
126.29564
 30
0.0
  0
VERTEX
  5
45A
100
AcDbEntity
  8
LAY-1
  6
CONTINUOUS
 62
     7
100
AcDbVertex
100
AcDb2dVertex
 10
726.12417
 20
126.18764
 30
0.0
  0
VERTEX
  5
45B
100
AcDbEntity
  8
LAY-1
  6
CONTINUOUS
 62
     7
100
AcDbVertex
100
AcDb2dVertex
 10
726.63177
 20
126.06884
 30
0.0
  0
VERTEX
  5
45C
100
AcDbEntity
  8
LAY-1
  6
CONTINUOUS
 62
     7
100
AcDbVertex
100
AcDb2dVertex
 10
727.12857
 20
125.91764
 30
0.0
  0
VERTEX
  5
45D
100
AcDbEntity
  8
LAY-1
  6
CONTINUOUS
 62
     7
100
AcDbVertex
100
AcDb2dVertex
 10
727.61457
 20
125.75564
 30
0.0
  0
VERTEX
  5
45E
100
AcDbEntity
  8
LAY-1
  6
CONTINUOUS
 62
     7
100
AcDbVertex
100
AcDb2dVertex
 10
728.06817
 20
125.60444
 30
0.0
  0
VERTEX
  5
45F
100
AcDbEntity
  8
LAY-1
  6
CONTINUOUS
 62
     7
100
AcDbVertex
100
AcDb2dVertex
 10
728.52177
 20
125.42084
 30
0.0
  0
VERTEX
  5
460
100
AcDbEntity
  8
LAY-1
  6
CONTINUOUS
 62
     7
100
AcDbVertex
100
AcDb2dVertex
 10
728.95377
 20
125.22644
 30
0.0
  0
VERTEX
  5
461
100
AcDbEntity
  8
LAY-1
  6
CONTINUOUS
 62
     7
100
AcDbVertex
100
AcDb2dVertex
 10
729.37497
 20
125.02124
 30
0.0
  0
VERTEX
  5
462
100
AcDbEntity
  8
LAY-1
  6
CONTINUOUS
 62
     7
100
AcDbVertex
100
AcDb2dVertex
 10
729.77457
 20
124.79444
 30
0.0
  0
VERTEX
  5
463
100
AcDbEntity
  8
LAY-1
  6
CONTINUOUS
 62
     7
100
AcDbVertex
100
AcDb2dVertex
 10
730.14177
 20
124.57844
 30
0.0
  0
VERTEX
  5
464
100
AcDbEntity
  8
LAY-1
  6
CONTINUOUS
 62
     7
100
AcDbVertex
100
AcDb2dVertex
 10
730.50897
 20
124.34084
 30
0.0
  0
VERTEX
  5
465
100
AcDbEntity
  8
LAY-1
  6
CONTINUOUS
 62
     7
100
AcDbVertex
100
AcDb2dVertex
 10
730.82217
 20
124.08164
 30
0.0
  0
VERTEX
  5
466
100
AcDbEntity
  8
LAY-1
  6
CONTINUOUS
 62
     7
100
AcDbVertex
100
AcDb2dVertex
 10
731.11377
 20
123.82244
 30
0.0
  0
VERTEX
  5
467
100
AcDbEntity
  8
LAY-1
  6
CONTINUOUS
 62
     7
100
AcDbVertex
100
AcDb2dVertex
 10
731.39457
 20
123.55244
 30
0.0
  0
VERTEX
  5
468
100
AcDbEntity
  8
LAY-1
  6
CONTINUOUS
 62
     7
100
AcDbVertex
100
AcDb2dVertex
 10
731.63217
 20
123.28244
 30
0.0
  0
VERTEX
  5
469
100
AcDbEntity
  8
LAY-1
  6
CONTINUOUS
 62
     7
100
AcDbVertex
100
AcDb2dVertex
 10
731.85897
 20
122.99084
 30
0.0
  0
VERTEX
  5
46A
100
AcDbEntity
  8
LAY-1
  6
CONTINUOUS
 62
     7
100
AcDbVertex
100
AcDb2dVertex
 10
732.04257
 20
122.68844
 30
0.0
  0
VERTEX
  5
46B
100
AcDbEntity
  8
LAY-1
  6
CONTINUOUS
 62
     7
100
AcDbVertex
100
AcDb2dVertex
 10
732.21537
 20
122.38604
 30
0.0
  0
VERTEX
  5
46C
100
AcDbEntity
  8
LAY-1
  6
CONTINUOUS
 62
     7
100
AcDbVertex
100
AcDb2dVertex
 10
732.35577
 20
122.06204
 30
0.0
  0
VERTEX
  5
46D
100
AcDbEntity
  8
LAY-1
  6
CONTINUOUS
 62
     7
100
AcDbVertex
100
AcDb2dVertex
 10
732.46377
 20
121.72724
 30
0.0
  0
VERTEX
  5
46E
100
AcDbEntity
  8
LAY-1
  6
CONTINUOUS
 62
     7
100
AcDbVertex
100
AcDb2dVertex
 10
732.56097
 20
121.39244
 30
0.0
  0
VERTEX
  5
46F
100
AcDbEntity
  8
LAY-1
  6
CONTINUOUS
 62
     7
100
AcDbVertex
100
AcDb2dVertex
 10
732.62577
 20
121.03604
 30
0.0
  0
VERTEX
  5
470
100
AcDbEntity
  8
LAY-1
  6
CONTINUOUS
 62
     7
100
AcDbVertex
100
AcDb2dVertex
 10
732.66897
 20
120.67964
 30
0.0
  0
VERTEX
  5
471
100
AcDbEntity
  8
LAY-1
  6
CONTINUOUS
 62
     7
100
AcDbVertex
100
AcDb2dVertex
 10
732.67977
 20
120.31244
 30
0.0
  0
VERTEX
  5
472
100
AcDbEntity
  8
LAY-1
  6
CONTINUOUS
 62
     7
100
AcDbVertex
100
AcDb2dVertex
 10
732.66897
 20
120.01004
 30
0.0
  0
VERTEX
  5
473
100
AcDbEntity
  8
LAY-1
  6
CONTINUOUS
 62
     7
100
AcDbVertex
100
AcDb2dVertex
 10
732.65817
 20
119.71844
 30
0.0
  0
VERTEX
  5
474
100
AcDbEntity
  8
LAY-1
  6
CONTINUOUS
 62
     7
100
AcDbVertex
100
AcDb2dVertex
 10
732.62577
 20
119.42684
 30
0.0
  0
VERTEX
  5
475
100
AcDbEntity
  8
LAY-1
  6
CONTINUOUS
 62
     7
100
AcDbVertex
100
AcDb2dVertex
 10
732.59337
 20
119.16764
 30
0.0
  0
VERTEX
  5
476
100
AcDbEntity
  8
LAY-1
  6
CONTINUOUS
 62
     7
100
AcDbVertex
100
AcDb2dVertex
 10
732.53937
 20
118.88684
 30
0.0
  0
VERTEX
  5
477
100
AcDbEntity
  8
LAY-1
  6
CONTINUOUS
 62
     7
100
AcDbVertex
100
AcDb2dVertex
 10
732.46377
 20
118.62764
 30
0.0
  0
VERTEX
  5
478
100
AcDbEntity
  8
LAY-1
  6
CONTINUOUS
 62
     7
100
AcDbVertex
100
AcDb2dVertex
 10
732.39897
 20
118.37924
 30
0.0
  0
VERTEX
  5
479
100
AcDbEntity
  8
LAY-1
  6
CONTINUOUS
 62
     7
100
AcDbVertex
100
AcDb2dVertex
 10
732.30177
 20
118.13084
 30
0.0
  0
VERTEX
  5
47A
100
AcDbEntity
  8
LAY-1
  6
CONTINUOUS
 62
     7
100
AcDbVertex
100
AcDb2dVertex
 10
732.21537
 20
117.89324
 30
0.0
  0
VERTEX
  5
47B
100
AcDbEntity
  8
LAY-1
  6
CONTINUOUS
 62
     7
100
AcDbVertex
100
AcDb2dVertex
 10
732.10737
 20
117.67724
 30
0.0
  0
VERTEX
  5
47C
100
AcDbEntity
  8
LAY-1
  6
CONTINUOUS
 62
     7
100
AcDbVertex
100
AcDb2dVertex
 10
731.98857
 20
117.45044
 30
0.0
  0
VERTEX
  5
47D
100
AcDbEntity
  8
LAY-1
  6
CONTINUOUS
 62
     7
100
AcDbVertex
100
AcDb2dVertex
 10
731.85897
 20
117.23444
 30
0.0
  0
VERTEX
  5
47E
100
AcDbEntity
  8
LAY-1
  6
CONTINUOUS
 62
     7
100
AcDbVertex
100
AcDb2dVertex
 10
731.70777
 20
117.04004
 30
0.0
  0
VERTEX
  5
47F
100
AcDbEntity
  8
LAY-1
  6
CONTINUOUS
 62
     7
100
AcDbVertex
100
AcDb2dVertex
 10
731.56737
 20
116.84564
 30
0.0
  0
VERTEX
  5
480
100
AcDbEntity
  8
LAY-1
  6
CONTINUOUS
 62
     7
100
AcDbVertex
100
AcDb2dVertex
 10
731.39457
 20
116.66204
 30
0.0
  0
VERTEX
  5
481
100
AcDbEntity
  8
LAY-1
  6
CONTINUOUS
 62
     7
100
AcDbVertex
100
AcDb2dVertex
 10
731.22177
 20
116.47844
 30
0.0
  0
VERTEX
  5
482
100
AcDbEntity
  8
LAY-1
  6
CONTINUOUS
 62
     7
100
AcDbVertex
100
AcDb2dVertex
 10
730.83297
 20
116.14364
 30
0.0
  0
VERTEX
  5
483
100
AcDbEntity
  8
LAY-1
  6
CONTINUOUS
 62
     7
100
AcDbVertex
100
AcDb2dVertex
 10
730.40097
 20
115.81964
 30
0.0
  0
VERTEX
  5
484
100
AcDbEntity
  8
LAY-1
  6
CONTINUOUS
 62
     7
100
AcDbVertex
100
AcDb2dVertex
 10
729.93657
 20
115.51724
 30
0.0
  0
VERTEX
  5
485
100
AcDbEntity
  8
LAY-1
  6
CONTINUOUS
 62
     7
100
AcDbVertex
100
AcDb2dVertex
 10
729.42897
 20
115.23644
 30
0.0
  0
VERTEX
  5
486
100
AcDbEntity
  8
LAY-1
  6
CONTINUOUS
 62
     7
100
AcDbVertex
100
AcDb2dVertex
 10
728.87817
 20
114.97724
 30
0.0
  0
VERTEX
  5
487
100
AcDbEntity
  8
LAY-1
  6
CONTINUOUS
 62
     7
100
AcDbVertex
100
AcDb2dVertex
 10
728.27337
 20
114.72884
 30
0.0
  0
VERTEX
  5
488
100
AcDbEntity
  8
LAY-1
  6
CONTINUOUS
 62
     7
100
AcDbVertex
100
AcDb2dVertex
 10
727.63617
 20
114.52364
 30
0.0
  0
VERTEX
  5
489
100
AcDbEntity
  8
LAY-1
  6
CONTINUOUS
 62
     7
100
AcDbVertex
100
AcDb2dVertex
 10
726.95577
 20
114.30764
 30
0.0
  0
VERTEX
  5
48A
100
AcDbEntity
  8
LAY-1
  6
CONTINUOUS
 62
     7
100
AcDbVertex
100
AcDb2dVertex
 10
726.26457
 20
114.12404
 30
0.0
  0
VERTEX
  5
48B
100
AcDbEntity
  8
LAY-1
  6
CONTINUOUS
 62
     7
100
AcDbVertex
100
AcDb2dVertex
 10
725.54097
 20
113.97284
 30
0.0
  0
VERTEX
  5
48C
100
AcDbEntity
  8
LAY-1
  6
CONTINUOUS
 62
     7
100
AcDbVertex
100
AcDb2dVertex
 10
724.80657
 20
113.84324
 30
0.0
  0
VERTEX
  5
48D
100
AcDbEntity
  8
LAY-1
  6
CONTINUOUS
 62
     7
100
AcDbVertex
100
AcDb2dVertex
 10
724.03977
 20
113.73524
 30
0.0
  0
VERTEX
  5
48E
100
AcDbEntity
  8
LAY-1
  6
CONTINUOUS
 62
     7
100
AcDbVertex
100
AcDb2dVertex
 10
723.27297
 20
113.63804
 30
0.0
  0
VERTEX
  5
48F
100
AcDbEntity
  8
LAY-1
  6
CONTINUOUS
 62
     7
100
AcDbVertex
100
AcDb2dVertex
 10
722.49537
 20
113.58404
 30
0.0
  0
VERTEX
  5
490
100
AcDbEntity
  8
LAY-1
  6
CONTINUOUS
 62
     7
100
AcDbVertex
100
AcDb2dVertex
 10
721.69617
 20
113.55164
 30
0.0
  0
VERTEX
  5
491
100
AcDbEntity
  8
LAY-1
  6
CONTINUOUS
 62
     7
100
AcDbVertex
100
AcDb2dVertex
 10
720.87537
 20
113.54084
 30
0.0
  0
VERTEX
  5
492
100
AcDbEntity
  8
LAY-1
  6
CONTINUOUS
 62
     7
100
AcDbVertex
100
AcDb2dVertex
 10
720.21657
 20
113.54084
 30
0.0
  0
VERTEX
  5
493
100
AcDbEntity
  8
LAY-1
  6
CONTINUOUS
 62
     7
100
AcDbVertex
100
AcDb2dVertex
 10
719.57937
 20
113.56244
 30
0.0
  0
VERTEX
  5
494
100
AcDbEntity
  8
LAY-1
  6
CONTINUOUS
 62
     7
100
AcDbVertex
100
AcDb2dVertex
 10
718.96377
 20
113.59484
 30
0.0
  0
VERTEX
  5
495
100
AcDbEntity
  8
LAY-1
  6
CONTINUOUS
 62
     7
100
AcDbVertex
100
AcDb2dVertex
 10
718.35897
 20
113.63804
 30
0.0
  0
VERTEX
  5
496
100
AcDbEntity
  8
LAY-1
  6
CONTINUOUS
 62
     7
100
AcDbVertex
100
AcDb2dVertex
 10
717.77577
 20
113.70284
 30
0.0
  0
VERTEX
  5
497
100
AcDbEntity
  8
LAY-1
  6
CONTINUOUS
 62
     7
100
AcDbVertex
100
AcDb2dVertex
 10
717.18177
 20
113.77844
 30
0.0
  0
VERTEX
  5
498
100
AcDbEntity
  8
LAY-1
  6
CONTINUOUS
 62
     7
100
AcDbVertex
100
AcDb2dVertex
 10
716.63097
 20
113.86484
 30
0.0
  0
VERTEX
  5
499
100
AcDbEntity
  8
LAY-1
  6
CONTINUOUS
 62
     7
100
AcDbVertex
100
AcDb2dVertex
 10
716.08017
 20
113.97284
 30
0.0
  0
VERTEX
  5
49A
100
AcDbEntity
  8
LAY-1
  6
CONTINUOUS
 62
     7
100
AcDbVertex
100
AcDb2dVertex
 10
715.57257
 20
114.07004
 30
0.0
  0
VERTEX
  5
49B
100
AcDbEntity
  8
LAY-1
  6
CONTINUOUS
 62
     7
100
AcDbVertex
100
AcDb2dVertex
 10
715.05417
 20
114.19964
 30
0.0
  0
VERTEX
  5
49C
100
AcDbEntity
  8
LAY-1
  6
CONTINUOUS
 62
     7
100
AcDbVertex
100
AcDb2dVertex
 10
714.55737
 20
114.34004
 30
0.0
  0
VERTEX
  5
49D
100
AcDbEntity
  8
LAY-1
  6
CONTINUOUS
 62
     7
100
AcDbVertex
100
AcDb2dVertex
 10
714.07137
 20
114.50204
 30
0.0
  0
VERTEX
  5
49E
100
AcDbEntity
  8
LAY-1
  6
CONTINUOUS
 62
     7
100
AcDbVertex
100
AcDb2dVertex
 10
713.61777
 20
114.65324
 30
0.0
  0
VERTEX
  5
49F
100
AcDbEntity
  8
LAY-1
  6
CONTINUOUS
 62
     7
100
AcDbVertex
100
AcDb2dVertex
 10
713.17497
 20
114.83684
 30
0.0
  0
VERTEX
  5
4A0
100
AcDbEntity
  8
LAY-1
  6
CONTINUOUS
 62
     7
100
AcDbVertex
100
AcDb2dVertex
 10
712.72137
 20
115.04204
 30
0.0
  0
VERTEX
  5
4A1
100
AcDbEntity
  8
LAY-1
  6
CONTINUOUS
 62
     7
100
AcDbVertex
100
AcDb2dVertex
 10
712.31097
 20
115.23644
 30
0.0
  0
VERTEX
  5
4A2
100
AcDbEntity
  8
LAY-1
  6
CONTINUOUS
 62
     7
100
AcDbVertex
100
AcDb2dVertex
 10
711.92217
 20
115.46324
 30
0.0
  0
VERTEX
  5
4A3
100
AcDbEntity
  8
LAY-1
  6
CONTINUOUS
 62
     7
100
AcDbVertex
100
AcDb2dVertex
 10
711.55497
 20
115.67924
 30
0.0
  0
VERTEX
  5
4A4
100
AcDbEntity
  8
LAY-1
  6
CONTINUOUS
 62
     7
100
AcDbVertex
100
AcDb2dVertex
 10
711.19857
 20
115.92764
 30
0.0
  0
VERTEX
  5
4A5
100
AcDbEntity
  8
LAY-1
  6
CONTINUOUS
 62
     7
100
AcDbVertex
100
AcDb2dVertex
 10
710.88537
 20
116.17604
 30
0.0
  0
VERTEX
  5
4A6
100
AcDbEntity
  8
LAY-1
  6
CONTINUOUS
 62
     7
100
AcDbVertex
100
AcDb2dVertex
 10
710.60457
 20
116.44604
 30
0.0
  0
VERTEX
  5
4A7
100
AcDbEntity
  8
LAY-1
  6
CONTINUOUS
 62
     7
100
AcDbVertex
100
AcDb2dVertex
 10
710.32377
 20
116.71604
 30
0.0
  0
VERTEX
  5
4A8
100
AcDbEntity
  8
LAY-1
  6
CONTINUOUS
 62
     7
100
AcDbVertex
100
AcDb2dVertex
 10
710.08617
 20
117.00764
 30
0.0
  0
VERTEX
  5
4A9
100
AcDbEntity
  8
LAY-1
  6
CONTINUOUS
 62
     7
100
AcDbVertex
100
AcDb2dVertex
 10
709.87017
 20
117.31004
 30
0.0
  0
VERTEX
  5
4AA
100
AcDbEntity
  8
LAY-1
  6
CONTINUOUS
 62
     7
100
AcDbVertex
100
AcDb2dVertex
 10
709.67577
 20
117.62324
 30
0.0
  0
VERTEX
  5
4AB
100
AcDbEntity
  8
LAY-1
  6
CONTINUOUS
 62
     7
100
AcDbVertex
100
AcDb2dVertex
 10
709.51377
 20
117.94724
 30
0.0
  0
VERTEX
  5
4AC
100
AcDbEntity
  8
LAY-1
  6
CONTINUOUS
 62
     7
100
AcDbVertex
100
AcDb2dVertex
 10
709.37337
 20
118.28204
 30
0.0
  0
VERTEX
  5
4AD
100
AcDbEntity
  8
LAY-1
  6
CONTINUOUS
 62
     7
100
AcDbVertex
100
AcDb2dVertex
 10
709.25457
 20
118.62764
 30
0.0
  0
VERTEX
  5
4AE
100
AcDbEntity
  8
LAY-1
  6
CONTINUOUS
 62
     7
100
AcDbVertex
100
AcDb2dVertex
 10
709.15737
 20
118.98404
 30
0.0
  0
VERTEX
  5
4AF
100
AcDbEntity
  8
LAY-1
  6
CONTINUOUS
 62
     7
100
AcDbVertex
100
AcDb2dVertex
 10
709.10337
 20
119.35124
 30
0.0
  0
VERTEX
  5
4B0
100
AcDbEntity
  8
LAY-1
  6
CONTINUOUS
 62
     7
100
AcDbVertex
100
AcDb2dVertex
 10
709.06017
 20
119.74004
 30
0.0
  0
VERTEX
  5
4B1
100
AcDbEntity
  8
LAY-1
  6
CONTINUOUS
 62
     7
100
AcDbVertex
100
AcDb2dVertex
 10
709.04937
 20
120.12884
 30
0.0
  0
SEQEND
  5
4B2
100
AcDbEntity
  8
LAY-1
  6
CONTINUOUS
 62
     7
  0
POLYLINE
  5
4B3
100
AcDbEntity
  8
LAY-1
  6
CONTINUOUS
 62
     7
100
AcDb2dPolyline
 66
     1
 10
0.0
 20
0.0
 30
0.0
 70
   128
  0
VERTEX
  5
4B4
100
AcDbEntity
  8
LAY-1
  6
CONTINUOUS
 62
     7
100
AcDbVertex
100
AcDb2dVertex
 10
709.10337
 20
120.97124
 30
0.0
  0
VERTEX
  5
4B5
100
AcDbEntity
  8
LAY-1
  6
CONTINUOUS
 62
     7
100
AcDbVertex
100
AcDb2dVertex
 10
709.18977
 20
121.39244
 30
0.0
  0
VERTEX
  5
4B6
100
AcDbEntity
  8
LAY-1
  6
CONTINUOUS
 62
     7
100
AcDbVertex
100
AcDb2dVertex
 10
709.29777
 20
121.77044
 30
0.0
  0
VERTEX
  5
4B7
100
AcDbEntity
  8
LAY-1
  6
CONTINUOUS
 62
     7
100
AcDbVertex
100
AcDb2dVertex
 10
709.42737
 20
122.14844
 30
0.0
  0
VERTEX
  5
4B8
100
AcDbEntity
  8
LAY-1
  6
CONTINUOUS
 62
     7
100
AcDbVertex
100
AcDb2dVertex
 10
709.60017
 20
122.50484
 30
0.0
  0
VERTEX
  5
4B9
100
AcDbEntity
  8
LAY-1
  6
CONTINUOUS
 62
     7
100
AcDbVertex
100
AcDb2dVertex
 10
709.79457
 20
122.85044
 30
0.0
  0
VERTEX
  5
4BA
100
AcDbEntity
  8
LAY-1
  6
CONTINUOUS
 62
     7
100
AcDbVertex
100
AcDb2dVertex
 10
710.03217
 20
123.17444
 30
0.0
  0
VERTEX
  5
4BB
100
AcDbEntity
  8
LAY-1
  6
CONTINUOUS
 62
     7
100
AcDbVertex
100
AcDb2dVertex
 10
710.29137
 20
123.50924
 30
0.0
  0
VERTEX
  5
4BC
100
AcDbEntity
  8
LAY-1
  6
CONTINUOUS
 62
     7
100
AcDbVertex
100
AcDb2dVertex
 10
710.57217
 20
123.80084
 30
0.0
  0
VERTEX
  5
4BD
100
AcDbEntity
  8
LAY-1
  6
CONTINUOUS
 62
     7
100
AcDbVertex
100
AcDb2dVertex
 10
710.88537
 20
124.08164
 30
0.0
  0
VERTEX
  5
4BE
100
AcDbEntity
  8
LAY-1
  6
CONTINUOUS
 62
     7
100
AcDbVertex
100
AcDb2dVertex
 10
711.24177
 20
124.36244
 30
0.0
  0
VERTEX
  5
4BF
100
AcDbEntity
  8
LAY-1
  6
CONTINUOUS
 62
     7
100
AcDbVertex
100
AcDb2dVertex
 10
711.63057
 20
124.62164
 30
0.0
  0
VERTEX
  5
4C0
100
AcDbEntity
  8
LAY-1
  6
CONTINUOUS
 62
     7
100
AcDbVertex
100
AcDb2dVertex
 10
712.03017
 20
124.87004
 30
0.0
  0
VERTEX
  5
4C1
100
AcDbEntity
  8
LAY-1
  6
CONTINUOUS
 62
     7
100
AcDbVertex
100
AcDb2dVertex
 10
712.48377
 20
125.10764
 30
0.0
  0
VERTEX
  5
4C2
100
AcDbEntity
  8
LAY-1
  6
CONTINUOUS
 62
     7
100
AcDbVertex
100
AcDb2dVertex
 10
712.93737
 20
125.32364
 30
0.0
  0
VERTEX
  5
4C3
100
AcDbEntity
  8
LAY-1
  6
CONTINUOUS
 62
     7
100
AcDbVertex
100
AcDb2dVertex
 10
713.34777
 20
125.49644
 30
0.0
  0
VERTEX
  5
4C4
100
AcDbEntity
  8
LAY-1
  6
CONTINUOUS
 62
     7
100
AcDbVertex
100
AcDb2dVertex
 10
713.76897
 20
125.65844
 30
0.0
  0
VERTEX
  5
4C5
100
AcDbEntity
  8
LAY-1
  6
CONTINUOUS
 62
     7
100
AcDbVertex
100
AcDb2dVertex
 10
714.22257
 20
125.79884
 30
0.0
  0
VERTEX
  5
4C6
100
AcDbEntity
  8
LAY-1
  6
CONTINUOUS
 62
     7
100
AcDbVertex
100
AcDb2dVertex
 10
714.66537
 20
125.93924
 30
0.0
  0
VERTEX
  5
4C7
100
AcDbEntity
  8
LAY-1
  6
CONTINUOUS
 62
     7
100
AcDbVertex
100
AcDb2dVertex
 10
715.11897
 20
126.06884
 30
0.0
  0
VERTEX
  5
4C8
100
AcDbEntity
  8
LAY-1
  6
CONTINUOUS
 62
     7
100
AcDbVertex
100
AcDb2dVertex
 10
715.58337
 20
126.17684
 30
0.0
  0
VERTEX
  5
4C9
100
AcDbEntity
  8
LAY-1
  6
CONTINUOUS
 62
     7
100
AcDbVertex
100
AcDb2dVertex
 10
716.05857
 20
126.27404
 30
0.0
  0
VERTEX
  5
4CA
100
AcDbEntity
  8
LAY-1
  6
CONTINUOUS
 62
     7
100
AcDbVertex
100
AcDb2dVertex
 10
716.54457
 20
126.37124
 30
0.0
  0
VERTEX
  5
4CB
100
AcDbEntity
  8
LAY-1
  6
CONTINUOUS
 62
     7
100
AcDbVertex
100
AcDb2dVertex
 10
717.05217
 20
126.45764
 30
0.0
  0
VERTEX
  5
4CC
100
AcDbEntity
  8
LAY-1
  6
CONTINUOUS
 62
     7
100
AcDbVertex
100
AcDb2dVertex
 10
717.57057
 20
126.52244
 30
0.0
  0
VERTEX
  5
4CD
100
AcDbEntity
  8
LAY-1
  6
CONTINUOUS
 62
     7
100
AcDbVertex
100
AcDb2dVertex
 10
718.08897
 20
126.58724
 30
0.0
  0
VERTEX
  5
4CE
100
AcDbEntity
  8
LAY-1
  6
CONTINUOUS
 62
     7
100
AcDbVertex
100
AcDb2dVertex
 10
718.62897
 20
126.64124
 30
0.0
  0
VERTEX
  5
4CF
100
AcDbEntity
  8
LAY-1
  6
CONTINUOUS
 62
     7
100
AcDbVertex
100
AcDb2dVertex
 10
719.16897
 20
126.67364
 30
0.0
  0
VERTEX
  5
4D0
100
AcDbEntity
  8
LAY-1
  6
CONTINUOUS
 62
     7
100
AcDbVertex
100
AcDb2dVertex
 10
719.73057
 20
126.70604
 30
0.0
  0
VERTEX
  5
4D1
100
AcDbEntity
  8
LAY-1
  6
CONTINUOUS
 62
     7
100
AcDbVertex
100
AcDb2dVertex
 10
720.30297
 20
126.71684
 30
0.0
  0
VERTEX
  5
4D2
100
AcDbEntity
  8
LAY-1
  6
CONTINUOUS
 62
     7
100
AcDbVertex
100
AcDb2dVertex
 10
720.87537
 20
126.71684
 30
0.0
  0
VERTEX
  5
4D3
100
AcDbEntity
  8
LAY-1
  6
CONTINUOUS
 62
     7
100
AcDbVertex
100
AcDb2dVertex
 10
721.52337
 20
126.71684
 30
0.0
  0
VERTEX
  5
4D4
100
AcDbEntity
  8
LAY-1
  6
CONTINUOUS
 62
     7
100
AcDbVertex
100
AcDb2dVertex
 10
722.14977
 20
126.70604
 30
0.0
  0
SEQEND
  5
4D5
100
AcDbEntity
  8
LAY-1
  6
CONTINUOUS
 62
     7
  0
POLYLINE
  5
4D6
100
AcDbEntity
  8
LAY-1
  6
CONTINUOUS
 62
     7
100
AcDb2dPolyline
 66
     1
 10
0.0
 20
0.0
 30
0.0
 70
   128
  0
VERTEX
  5
4D7
100
AcDbEntity
  8
LAY-1
  6
CONTINUOUS
 62
     7
100
AcDbVertex
100
AcDb2dVertex
 10
709.04937
 20
120.12884
 30
0.0
  0
VERTEX
  5
4D8
100
AcDbEntity
  8
LAY-1
  6
CONTINUOUS
 62
     7
100
AcDbVertex
100
AcDb2dVertex
 10
709.06017
 20
120.56084
 30
0.0
  0
VERTEX
  5
4D9
100
AcDbEntity
  8
LAY-1
  6
CONTINUOUS
 62
     7
100
AcDbVertex
100
AcDb2dVertex
 10
709.10337
 20
120.97124
 30
0.0
  0
SEQEND
  5
4DA
100
AcDbEntity
  8
LAY-1
  6
CONTINUOUS
 62
     7
  0
MTEXT
  5
4DB
100
AcDbEntity
  8
LAY-1
  6
CONTINUOUS
 62
     7
100
AcDbMText
 10
929.125
 20
130.625
 30
0.0
 40
15.1875
 41
607.5
 71
     2
 72
     1
  1
{コーワソニア株式会社}
  7
EXCADTTF1
  0
LINE
  5
4DC
100
AcDbEntity
  8
LAY-1
  6
CONTINUOUS
 62
     7
100
AcDbLine
 10
75.0
 20
150.0
 30
0.0
 11
75.0
 21
50.0
 31
0.0
  0
LINE
  5
4DD
100
AcDbEntity
  8
LAY-1
  6
CONTINUOUS
 62
     7
100
AcDbLine
 10
100.0
 20
150.0
 30
0.0
 11
100.0
 21
50.0
 31
0.0
  0
MTEXT
  5
4DF
100
AcDbEntity
  8
LAY-1
  6
CONTINUOUS
 62
     7
100
AcDbMText
 10
58.0
 20
127.0
 30
0.0
 40
6.75
 41
148.5
 71
     1
 72
     3
  1
{\T1.50;訂正事項}
  7
EXCADTTF2
 11
0.0
 21
-1.0
 31
0.0
  0
LINE
  5
4E0
100
AcDbEntity
  8
LAY-1
  6
CONTINUOUS
 62
     7
100
AcDbLine
 10
75.0
 20
100.0
 30
0.0
 11
550.0
 21
100.0
 31
0.0
  0
LINE
  5
4E1
100
AcDbEntity
  8
LAY-1
  6
CONTINUOUS
 62
     7
100
AcDbLine
 10
75.0
 20
75.0
 30
0.0
 11
550.0
 21
75.0
 31
0.0
  0
LINE
  5
4E2
100
AcDbEntity
  8
LAY-1
  6
CONTINUOUS
 62
     7
100
AcDbLine
 10
75.0
 20
125.0
 30
0.0
 11
550.0
 21
125.0
 31
0.0
  0
LINE
  5
4E3
100
AcDbEntity
  8
LAY-1
  6
CONTINUOUS
 62
     4
100
AcDbLine
 10
2050.0
 20
150.0
 30
0.0
 11
50.0
 21
150.0
 31
0.0
  0
POLYLINE
  5
4E4
100
AcDbEntity
  8
LAY-1
  6
CONTINUOUS
 62
     6
100
AcDb2dPolyline
 66
     1
 10
0.0
 20
0.0
 30
0.0
 70
   128
  0
VERTEX
  5
4E5
100
AcDbEntity
  8
LAY-1
  6
CONTINUOUS
 62
     6
100
AcDbVertex
100
AcDb2dVertex
 10
78.5
 20
129.75
 30
0.0
  0
VERTEX
  5
4E6
100
AcDbEntity
  8
LAY-1
  6
CONTINUOUS
 62
     6
100
AcDbVertex
100
AcDb2dVertex
 10
87.5
 20
145.338457
 30
0.0
  0
SEQEND
  5
4E7
100
AcDbEntity
  8
LAY-1
  6
CONTINUOUS
 62
     6
  0
POLYLINE
  5
4E8
100
AcDbEntity
  8
LAY-1
  6
CONTINUOUS
 62
     6
100
AcDb2dPolyline
 66
     1
 10
0.0
 20
0.0
 30
0.0
 70
   128
  0
VERTEX
  5
4E9
100
AcDbEntity
  8
LAY-1
  6
CONTINUOUS
 62
     6
100
AcDbVertex
100
AcDb2dVertex
 10
96.5
 20
129.75
 30
0.0
  0
VERTEX
  5
4EA
100
AcDbEntity
  8
LAY-1
  6
CONTINUOUS
 62
     6
100
AcDbVertex
100
AcDb2dVertex
 10
87.5
 20
145.338457
 30
0.0
  0
SEQEND
  5
4EB
100
AcDbEntity
  8
LAY-1
  6
CONTINUOUS
 62
     6
  0
LINE
  5
4EC
100
AcDbEntity
  8
LAY-1
  6
CONTINUOUS
 62
     6
100
AcDbLine
 10
78.5
 20
129.75
 30
0.0
 11
96.5
 21
129.75
 31
0.0
  0
POLYLINE
  5
4ED
100
AcDbEntity
  8
LAY-1
  6
CONTINUOUS
 62
     6
100
AcDb2dPolyline
 66
     1
 10
0.0
 20
0.0
 30
0.0
 70
   128
  0
VERTEX
  5
4EE
100
AcDbEntity
  8
LAY-1
  6
CONTINUOUS
 62
     6
100
AcDbVertex
100
AcDb2dVertex
 10
78.5
 20
104.75
 30
0.0
  0
VERTEX
  5
4EF
100
AcDbEntity
  8
LAY-1
  6
CONTINUOUS
 62
     6
100
AcDbVertex
100
AcDb2dVertex
 10
87.5
 20
120.338457
 30
0.0
  0
SEQEND
  5
4F0
100
AcDbEntity
  8
LAY-1
  6
CONTINUOUS
 62
     6
  0
POLYLINE
  5
4F1
100
AcDbEntity
  8
LAY-1
  6
CONTINUOUS
 62
     6
100
AcDb2dPolyline
 66
     1
 10
0.0
 20
0.0
 30
0.0
 70
   128
  0
VERTEX
  5
4F2
100
AcDbEntity
  8
LAY-1
  6
CONTINUOUS
 62
     6
100
AcDbVertex
100
AcDb2dVertex
 10
96.5
 20
104.75
 30
0.0
  0
VERTEX
  5
4F3
100
AcDbEntity
  8
LAY-1
  6
CONTINUOUS
 62
     6
100
AcDbVertex
100
AcDb2dVertex
 10
87.5
 20
120.338457
 30
0.0
  0
SEQEND
  5
4F4
100
AcDbEntity
  8
LAY-1
  6
CONTINUOUS
 62
     6
  0
LINE
  5
4F5
100
AcDbEntity
  8
LAY-1
  6
CONTINUOUS
 62
     6
100
AcDbLine
 10
78.5
 20
104.75
 30
0.0
 11
96.5
 21
104.75
 31
0.0
  0
POLYLINE
  5
4F6
100
AcDbEntity
  8
LAY-1
  6
CONTINUOUS
 62
     6
100
AcDb2dPolyline
 66
     1
 10
0.0
 20
0.0
 30
0.0
 70
   128
  0
VERTEX
  5
4F7
100
AcDbEntity
  8
LAY-1
  6
CONTINUOUS
 62
     6
100
AcDbVertex
100
AcDb2dVertex
 10
78.5
 20
79.75
 30
0.0
  0
VERTEX
  5
4F8
100
AcDbEntity
  8
LAY-1
  6
CONTINUOUS
 62
     6
100
AcDbVertex
100
AcDb2dVertex
 10
87.5
 20
95.338457
 30
0.0
  0
SEQEND
  5
4F9
100
AcDbEntity
  8
LAY-1
  6
CONTINUOUS
 62
     6
  0
POLYLINE
  5
4FA
100
AcDbEntity
  8
LAY-1
  6
CONTINUOUS
 62
     6
100
AcDb2dPolyline
 66
     1
 10
0.0
 20
0.0
 30
0.0
 70
   128
  0
VERTEX
  5
4FB
100
AcDbEntity
  8
LAY-1
  6
CONTINUOUS
 62
     6
100
AcDbVertex
100
AcDb2dVertex
 10
96.5
 20
79.75
 30
0.0
  0
VERTEX
  5
4FC
100
AcDbEntity
  8
LAY-1
  6
CONTINUOUS
 62
     6
100
AcDbVertex
100
AcDb2dVertex
 10
87.5
 20
95.338457
 30
0.0
  0
SEQEND
  5
4FD
100
AcDbEntity
  8
LAY-1
  6
CONTINUOUS
 62
     6
  0
LINE
  5
4FE
100
AcDbEntity
  8
LAY-1
  6
CONTINUOUS
 62
     6
100
AcDbLine
 10
78.5
 20
79.75
 30
0.0
 11
96.5
 21
79.75
 31
0.0
  0
POLYLINE
  5
4FF
100
AcDbEntity
  8
LAY-1
  6
CONTINUOUS
 62
     6
100
AcDb2dPolyline
 66
     1
 10
0.0
 20
0.0
 30
0.0
 70
   128
  0
VERTEX
  5
500
100
AcDbEntity
  8
LAY-1
  6
CONTINUOUS
 62
     6
100
AcDbVertex
100
AcDb2dVertex
 10
78.5
 20
54.75
 30
0.0
  0
VERTEX
  5
501
100
AcDbEntity
  8
LAY-1
  6
CONTINUOUS
 62
     6
100
AcDbVertex
100
AcDb2dVertex
 10
87.5
 20
70.338457
 30
0.0
  0
SEQEND
  5
502
100
AcDbEntity
  8
LAY-1
  6
CONTINUOUS
 62
     6
  0
POLYLINE
  5
503
100
AcDbEntity
  8
LAY-1
  6
CONTINUOUS
 62
     6
100
AcDb2dPolyline
 66
     1
 10
0.0
 20
0.0
 30
0.0
 70
   128
  0
VERTEX
  5
504
100
AcDbEntity
  8
LAY-1
  6
CONTINUOUS
 62
     6
100
AcDbVertex
100
AcDb2dVertex
 10
96.5
 20
54.75
 30
0.0
  0
VERTEX
  5
505
100
AcDbEntity
  8
LAY-1
  6
CONTINUOUS
 62
     6
100
AcDbVertex
100
AcDb2dVertex
 10
87.5
 20
70.338457
 30
0.0
  0
SEQEND
  5
506
100
AcDbEntity
  8
LAY-1
  6
CONTINUOUS
 62
     6
  0
LINE
  5
507
100
AcDbEntity
  8
LAY-1
  6
CONTINUOUS
 62
     6
100
AcDbLine
 10
78.5
 20
54.75
 30
0.0
 11
96.5
 21
54.75
 31
0.0
  0
MTEXT
  5
509
100
AcDbEntity
  8
LAY-1
  6
CONTINUOUS
 62
     7
100
AcDbMText
 10
87.5
 20
64.575
 30
0.0
 40
5.7375
 41
22.95
 71
     2
 72
     1
  1
{\T0.75;４}
  7
EXCADTTF3
  0
MTEXT
  5
50A
100
AcDbEntity
  8
LAY-1
  6
CONTINUOUS
 62
     7
100
AcDbMText
 10
87.5
 20
89.575
 30
0.0
 40
5.7375
 41
22.95
 71
     2
 72
     1
  1
{\T0.75;３}
  7
EXCADTTF3
  0
MTEXT
  5
50B
100
AcDbEntity
  8
LAY-1
  6
CONTINUOUS
 62
     7
100
AcDbMText
 10
87.5
 20
114.575
 30
0.0
 40
5.7375
 41
22.95
 71
     2
 72
     1
  1
{\T0.75;２}
  7
EXCADTTF3
  0
MTEXT
  5
50C
100
AcDbEntity
  8
LAY-1
  6
CONTINUOUS
 62
     7
100
AcDbMText
 10
87.5
 20
139.575
 30
0.0
 40
5.7375
 41
22.95
 71
     2
 72
     1
  1
{\T0.75;１}
  7
EXCADTTF3
  0
LINE
  5
50D
100
AcDbEntity
  8
LAY-1
  6
CONTINUOUS
 62
   134
100
AcDbLine
 10
1725.0
 20
50.0
 30
0.0
 11
1725.0
 21
150.0
 31
0.0
  0
LINE
  5
50E
100
AcDbEntity
  8
LAY-1
  6
CONTINUOUS
 62
   134
100
AcDbLine
 10
1825.0
 20
50.0
 30
0.0
 11
1825.0
 21
150.0
 31
0.0
  0
MTEXT
  5
50F
100
AcDbEntity
  8
LAY-1
  6
CONTINUOUS
 62
     7
100
AcDbMText
 10
1775.0
 20
80.625
 30
0.0
 40
8.4375
 41
147.15
 71
     2
 72
     1
  1
{\T1.12;図面番号}
  7
EXCADTTF1
  0
MTEXT
  5
510
100
AcDbEntity
  8
LAY-1
  6
CONTINUOUS
 62
     7
100
AcDbMText
 10
1775.0
 20
130.625
 30
0.0
 40
8.4375
 41
109.35
 71
     2
 72
     1
  1
{\T1.12;製品名}
  7
EXCADTTF1
  0
MTEXT
  5
511
100
AcDbEntity
  8
LAY-1
  6
CONTINUOUS
 62
     7
100
AcDbMText
 10
1937.5
 20
80.625
 30
0.0
 40
8.4375
 41
109.35
 71
     2
 72
     1
  1
{\T1.12;－－－}
  7
EXCADTTF1
  0
MTEXT
  5
512
100
AcDbEntity
  8
LAY-1
  6
CONTINUOUS
 62
     7
100
AcDbMText
 10
1612.5
 20
93.125
 30
0.0
 40
8.4375
 41
168.75
 71
     2
 72
     1
  1
{Ｓ：１／ ５}
  7
EXCADTTF1
  0
MTEXT
  5
514
100
AcDbEntity
  8
LAY-1
  6
CONTINUOUS
 62
     7
100
AcDbMText
 10
1726.275
 20
1386.425
 30
0.0
 40
11.8125
 41
127.575
 71
     1
 72
     1
  1
{\W0.9000;数  量}
  7
EXCADTTF4
  0
MTEXT
  5
515
100
AcDbEntity
  8
LAY-1
  6
CONTINUOUS
 62
     7
100
AcDbMText
 10
1742.475
 20
1357.205
 30
0.0
 40
11.8125
 41
42.525
 71
     1
 72
     1
  1
{\W0.9000;１}
  7
EXCADTTF4
  0
MTEXT
  5
516
100
AcDbEntity
  8
LAY-1
  6
CONTINUOUS
 62
     7
100
AcDbMText
 10
1317.075
 20
1356.425
 30
0.0
 40
11.8125
 41
276.4125
 71
     1
 72
     1
  1
{\W0.9000;ＳＵＳ-３０４}
  7
EXCADTTF4
  0
MTEXT
  5
517
100
AcDbEntity
  8
LAY-1
  6
CONTINUOUS
 62
     7
100
AcDbMText
 10
1421.975
 20
1421.425
 30
0.0
 40
11.8125
 41
531.5625
 71
     1
 72
     1
  1
{\W0.9000;部品・部材一覧（1台当り）}
  7
EXCADTTF4
  0
MTEXT
  5
518
100
AcDbEntity
  8
LAY-1
  6
CONTINUOUS
 62
     7
100
AcDbMText
 10
1120.875
 20
1386.425
 30
0.0
 40
11.8125
 41
297.675
 71
     1
 72
     1
  1
{\W0.9000;名          称}
  7
EXCADTTF4
  0
MTEXT
  5
519
100
AcDbEntity
  8
LAY-1
  6
CONTINUOUS
 62
     7
100
AcDbMText
 10
1064.355
 20
1387.145
 30
0.0
 40
11.8125
 41
63.7875
 71
     1
 72
     1
  1
{\W0.9000;No.}
  7
EXCADTTF4
  0
MTEXT
  5
51A
100
AcDbEntity
  8
LAY-1
  6
CONTINUOUS
 62
     7
100
AcDbMText
 10
1346.475
 20
1386.425
 30
0.0
 40
11.8125
 41
297.675
 71
     1
 72
     1
  1
{\W0.9000;材          質}
  7
EXCADTTF4
  0
MTEXT
  5
51B
100
AcDbEntity
  8
LAY-1
  6
CONTINUOUS
 62
     7
100
AcDbMText
 10
1557.075
 20
1386.425
 30
0.0
 40
11.8125
 41
297.675
 71
     1
 72
     1
  1
{\W0.9000;仕          上}
  7
EXCADTTF4
  0
MTEXT
  5
51C
100
AcDbEntity
  8
LAY-1
  6
CONTINUOUS
 62
     7
100
AcDbMText
 10
1856.475
 20
1386.425
 30
0.0
 40
11.8125
 41
297.675
 71
     1
 72
     1
  1
{\W0.9000;備          考}
  7
EXCADTTF4
  0
MTEXT
  5
51D
100
AcDbEntity
  8
LAY-1
  6
CONTINUOUS
 62
     7
100
AcDbMText
 10
1105.675
 20
1236.425
 30
0.0
 40
11.8125
 41
297.675
 71
     1
 72
     1
  1
{\W0.9000;インナーパネル}
  7
EXCADTTF4
  0
MTEXT
  5
51E
100
AcDbEntity
  8
LAY-1
  6
CONTINUOUS
 62
     7
100
AcDbMText
 10
1105.675
 20
1356.425
 30
0.0
 40
11.8125
 41
85.05
 71
     1
 72
     1
  1
{\W0.9000;本体}
  7
EXCADTTF4
  0
MTEXT
  5
51F
100
AcDbEntity
  8
LAY-1
  6
CONTINUOUS
 62
     7
100
AcDbMText
 10
1525.775
 20
1266.425
 30
0.0
 40
11.8125
 41
42.525
 71
     1
 72
     1
  1
{\W0.9000;黒}
  7
EXCADTTF4
  0
LINE
  5
520
100
AcDbEntity
  8
LAY-1
  6
CONTINUOUS
 62
     1
100
AcDbLine
 10
2050.0
 20
1395.0
 30
0.0
 11
1060.0
 21
1395.0
 31
0.0
  0
LINE
  5
521
100
AcDbEntity
  8
LAY-1
  6
CONTINUOUS
 62
     6
100
AcDbLine
 10
1060.0
 20
1365.0
 30
0.0
 11
2050.0
 21
1365.0
 31
0.0
  0
LINE
  5
522
100
AcDbEntity
  8
LAY-1
  6
CONTINUOUS
 62
     6
100
AcDbLine
 10
1060.0
 20
1275.0
 30
0.0
 11
2050.0
 21
1275.0
 31
0.0
  0
LINE
  5
523
100
AcDbEntity
  8
LAY-1
  6
CONTINUOUS
 62
     6
100
AcDbLine
 10
1060.0
 20
1245.0
 30
0.0
 11
2050.0
 21
1245.0
 31
0.0
  0
LINE
  5
524
100
AcDbEntity
  8
LAY-1
  6
CONTINUOUS
 62
     6
100
AcDbLine
 10
1060.0
 20
1215.0
 30
0.0
 11
2050.0
 21
1215.0
 31
0.0
  0
MTEXT
  5
525
100
AcDbEntity
  8
LAY-1
  6
CONTINUOUS
 62
     7
100
AcDbMText
 10
1105.675
 20
1266.425
 30
0.0
 40
11.8125
 41
297.675
 71
     1
 72
     1
  1
{\W0.9000;静音ダイヤル錠}
  7
EXCADTTF4
  0
MTEXT
  5
526
100
AcDbEntity
  8
LAY-1
  6
CONTINUOUS
 62
     7
100
AcDbMText
 10
1317.075
 20
1266.425
 30
0.0
 40
11.8125
 41
297.675
 71
     1
 72
     1
  1
{\W0.9000;（アルファ製）}
  7
EXCADTTF4
  0
MTEXT
  5
527
100
AcDbEntity
  8
LAY-1
  6
CONTINUOUS
 62
     7
100
AcDbMText
 10
1525.775
 20
1356.425
 30
0.0
 40
11.8125
 41
127.575
 71
     1
 72
     1
  1
{\W0.9000;Ｎｏ４}
  7
EXCADTTF4
  0
MTEXT
  5
528
100
AcDbEntity
  8
LAY-1
  6
CONTINUOUS
 62
     7
100
AcDbMText
 10
1612.5
 20
143.125
 30
0.0
 40
8.4375
 41
523.125
 71
     2
 72
     1
  1
{ＳＵＳ-３０４ ｔ-０.７，０.６ｔ}
  7
EXCADTTF1
  0
MTEXT
  5
529
100
AcDbEntity
  8
LAY-1
  6
CONTINUOUS
 62
     7
100
AcDbMText
 10
1612.5
 20
118.125
 30
0.0
 40
8.4375
 41
168.75
 71
     2
 72
     1
  1
{Ｎｏ４仕上}
  7
EXCADTTF1
  0
LINE
  5
52A
100
AcDbEntity
  8
LAY-1
  6
CONTINUOUS
 62
     7
100
AcDbLine
 10
255.2
 20
593.55
 30
0.0
 11
645.2
 21
593.55
 31
0.0
  0
LINE
  5
52B
100
AcDbEntity
  8
LAY-1
  6
CONTINUOUS
 62
     7
100
AcDbLine
 10
645.2
 20
593.55
 30
0.0
 11
645.2
 21
298.55
 31
0.0
  0
CIRCLE
  5
52C
100
AcDbEntity
  8
LAY-1
  6
CONTINUOUS
 62
     7
100
AcDbCircle
 10
450.2
 20
338.05
 30
0.0
 40
19.75
  0
CIRCLE
  5
52D
100
AcDbEntity
  8
LAY-1
  6
CONTINUOUS
 62
     6
100
AcDbCircle
 10
450.2
 20
338.05
 30
0.0
 40
16.75
  0
CIRCLE
  5
52E
100
AcDbEntity
  8
LAY-1
  6
CONTINUOUS
 62
     7
100
AcDbCircle
 10
450.2
 20
338.05
 30
0.0
 40
14.5
  0
LINE
  5
52F
100
AcDbEntity
  8
LAY-1
  6
CONTINUOUS
 62
     7
100
AcDbLine
 10
450.7
 20
352.05
 30
0.0
 11
450.7
 21
350.539996
 31
0.0
  0
LINE
  5
530
100
AcDbEntity
  8
LAY-1
  6
CONTINUOUS
 62
     7
100
AcDbLine
 10
449.7
 20
352.05
 30
0.0
 11
449.7
 21
350.539996
 31
0.0
  0
LINE
  5
531
100
AcDbEntity
  8
LAY-1
  6
CONTINUOUS
 62
     7
100
AcDbLine
 10
449.7
 20
352.05
 30
0.0
 11
450.7
 21
352.05
 31
0.0
  0
LINE
  5
532
100
AcDbEntity
  8
LAY-1
  6
CONTINUOUS
 62
     7
100
AcDbLine
 10
450.7
 20
344.530741
 30
0.0
 11
450.7
 21
343.527226
 31
0.0
  0
LINE
  5
533
100
AcDbEntity
  8
LAY-1
  6
CONTINUOUS
 62
     7
100
AcDbLine
 10
449.7
 20
344.530741
 30
0.0
 11
449.7
 21
343.527226
 31
0.0
  0
ARC
  5
534
100
AcDbEntity
  8
LAY-1
  6
CONTINUOUS
 62
     7
100
AcDbCircle
 10
450.2
 20
338.05
 30
0.0
 40
12.5
100
AcDbArc
 50
55.123303
 51
124.876697
  0
ARC
  5
535
100
AcDbEntity
  8
LAY-1
  6
CONTINUOUS
 62
     7
100
AcDbCircle
 10
450.2
 20
338.05
 30
0.0
 40
12.0
100
AcDbArc
 50
55.123303
 51
124.876697
  0
ARC
  5
536
100
AcDbEntity
  8
LAY-1
  6
CONTINUOUS
 62
     7
100
AcDbCircle
 10
450.2
 20
338.05
 30
0.0
 40
6.5
100
AcDbArc
 50
55.123303
 51
124.876697
  0
ARC
  5
537
100
AcDbEntity
  8
LAY-1
  6
CONTINUOUS
 62
     7
100
AcDbCircle
 10
450.2
 20
338.05
 30
0.0
 40
5.5
100
AcDbArc
 50
55.123303
 51
124.876697
  0
ARC
  5
538
100
AcDbEntity
  8
LAY-1
  6
CONTINUOUS
 62
     7
100
AcDbCircle
 10
455.34631
 20
345.433461
 30
0.0
 40
3.5
100
AcDbArc
 50
235.123303
 51
55.123303
  0
ARC
  5
539
100
AcDbEntity
  8
LAY-1
  6
CONTINUOUS
 62
     7
100
AcDbCircle
 10
455.489263
 20
345.638557
 30
0.0
 40
2.75
100
AcDbArc
 50
235.123303
 51
55.123303
  0
ARC
  5
53A
100
AcDbEntity
  8
LAY-1
  6
CONTINUOUS
 62
     7
100
AcDbCircle
 10
444.910737
 20
345.638557
 30
0.0
 40
2.75
100
AcDbArc
 50
124.876697
 51
304.876697
  0
ARC
  5
53B
100
AcDbEntity
  8
LAY-1
  6
CONTINUOUS
 62
     7
100
AcDbCircle
 10
445.05369
 20
345.433461
 30
0.0
 40
3.5
100
AcDbArc
 50
124.876697
 51
304.876697
  0
LINE
  5
53C
100
AcDbEntity
  8
LAY-1
  6
CENTER
 62
     7
100
AcDbLine
 10
450.2
 20
308.05
 30
0.0
 11
450.2
 21
368.05
 31
0.0
  0
LINE
  5
53D
100
AcDbEntity
  8
LAY-1
  6
CENTER
 62
     7
100
AcDbLine
 10
420.2
 20
338.05
 30
0.0
 11
480.2
 21
338.05
 31
0.0
  0
ARC
  5
53E
100
AcDbEntity
  8
LAY-1
  6
CONTINUOUS
 62
     6
100
AcDbCircle
 10
272.7
 20
591.05
 30
0.0
 40
1.0
100
AcDbArc
 50
0.0
 51
90.0
  0
LINE
  5
53F
100
AcDbEntity
  8
LAY-1
  6
CONTINUOUS
 62
     6
100
AcDbLine
 10
272.7
 20
592.05
 30
0.0
 11
258.2
 21
592.05
 31
0.0
  0
ARC
  5
540
100
AcDbEntity
  8
LAY-1
  6
CONTINUOUS
 62
     6
100
AcDbCircle
 10
258.2
 20
591.05
 30
0.0
 40
1.0
100
AcDbArc
 50
90.0
 51
180.0
  0
ARC
  5
541
100
AcDbEntity
  8
LAY-1
  6
CONTINUOUS
 62
     6
100
AcDbCircle
 10
272.7
 20
301.05
 30
0.0
 40
1.0
100
AcDbArc
 50
270.0
 51
0.0
  0
LINE
  5
542
100
AcDbEntity
  8
LAY-1
  6
CONTINUOUS
 62
     6
100
AcDbLine
 10
272.7
 20
300.05
 30
0.0
 11
258.2
 21
300.05
 31
0.0
  0
ARC
  5
543
100
AcDbEntity
  8
LAY-1
  6
CONTINUOUS
 62
     6
100
AcDbCircle
 10
258.2
 20
301.05
 30
0.0
 40
1.0
100
AcDbArc
 50
180.0
 51
270.0
  0
ARC
  5
544
100
AcDbEntity
  8
LAY-1
  6
CONTINUOUS
 62
     6
100
AcDbCircle
 10
627.7
 20
301.05
 30
0.0
 40
1.0
100
AcDbArc
 50
180.0
 51
270.0
  0
LINE
  5
545
100
AcDbEntity
  8
LAY-1
  6
CONTINUOUS
 62
     6
100
AcDbLine
 10
627.7
 20
300.05
 30
0.0
 11
642.2
 21
300.05
 31
0.0
  0
ARC
  5
546
100
AcDbEntity
  8
LAY-1
  6
CONTINUOUS
 62
     6
100
AcDbCircle
 10
642.2
 20
301.05
 30
0.0
 40
1.0
100
AcDbArc
 50
270.0
 51
0.0
  0
LINE
  5
547
100
AcDbEntity
  8
LAY-1
  6
CONTINUOUS
 62
     6
100
AcDbLine
 10
643.2
 20
591.05
 30
0.0
 11
643.2
 21
301.05
 31
0.0
  0
LINE
  5
548
100
AcDbEntity
  8
LAY-1
  6
CONTINUOUS
 62
     6
100
AcDbLine
 10
626.7
 20
591.05
 30
0.0
 11
626.7
 21
301.05
 31
0.0
  0
ARC
  5
549
100
AcDbEntity
  8
LAY-1
  6
CONTINUOUS
 62
     6
100
AcDbCircle
 10
627.7
 20
591.05
 30
0.0
 40
1.0
100
AcDbArc
 50
90.0
 51
180.0
  0
LINE
  5
54A
100
AcDbEntity
  8
LAY-1
  6
CONTINUOUS
 62
     6
100
AcDbLine
 10
627.7
 20
592.05
 30
0.0
 11
642.2
 21
592.05
 31
0.0
  0
ARC
  5
54B
100
AcDbEntity
  8
LAY-1
  6
CONTINUOUS
 62
     6
100
AcDbCircle
 10
642.2
 20
591.05
 30
0.0
 40
1.0
100
AcDbArc
 50
0.0
 51
90.0
  0
LINE
  5
54C
100
AcDbEntity
  8
LAY-1
  6
CONTINUOUS
 62
     6
100
AcDbLine
 10
273.9
 20
535.05
 30
0.0
 11
626.5
 21
535.05
 31
0.0
  0
POLYLINE
  5
54D
100
AcDbEntity
  8
LAY-1
  6
CONTINUOUS
 62
     7
100
AcDb2dPolyline
 66
     1
 10
0.0
 20
0.0
 30
0.0
 70
   128
  0
VERTEX
  5
54E
100
AcDbEntity
  8
LAY-1
  6
CONTINUOUS
 62
     7
100
AcDbVertex
100
AcDb2dVertex
 10
1658.75
 20
232.5
 30
0.0
  0
VERTEX
  5
54F
100
AcDbEntity
  8
LAY-1
  6
CONTINUOUS
 62
     7
100
AcDbVertex
100
AcDb2dVertex
 10
1808.25
 20
232.5
 30
0.0
  0
VERTEX
  5
550
100
AcDbEntity
  8
LAY-1
  6
CONTINUOUS
 62
     7
100
AcDbVertex
100
AcDb2dVertex
 10
1808.25
 20
203.5
 30
0.0
  0
VERTEX
  5
551
100
AcDbEntity
  8
LAY-1
  6
CONTINUOUS
 62
     7
100
AcDbVertex
100
AcDb2dVertex
 10
1658.75
 20
203.5
 30
0.0
  0
VERTEX
  5
552
100
AcDbEntity
  8
LAY-1
  6
CONTINUOUS
 62
     7
100
AcDbVertex
100
AcDb2dVertex
 10
1658.75
 20
232.5
 30
0.0
  0
SEQEND
  5
553
100
AcDbEntity
  8
LAY-1
  6
CONTINUOUS
 62
     7
  0
MTEXT
  5
554
100
AcDbEntity
  8
LAY-1
  6
CONTINUOUS
 62
     7
100
AcDbMText
 10
1733.5
 20
224.75
 30
0.0
 40
13.5
 41
290.25
 71
     2
 72
     1
  1
{\T0.83;\W0.8200;背面図　Ｓ=１／５}
  7
EXCADSTD
  0
MTEXT
  5
555
100
AcDbEntity
  8
LAY-1
  6
CONTINUOUS
 62
     7
100
AcDbMText
 10
450.2
 20
224.75
 30
0.0
 40
13.5
 41
270.0
 71
     2
 72
     1
  1
{\T0.83;\W0.7975;姿 図　Ｓ=１／ ５}
  7
EXCADSTD
  0
POLYLINE
  5
556
100
AcDbEntity
  8
LAY-1
  6
CONTINUOUS
 62
     7
100
AcDb2dPolyline
 66
     1
 10
0.0
 20
0.0
 30
0.0
 70
   128
  0
VERTEX
  5
557
100
AcDbEntity
  8
LAY-1
  6
CONTINUOUS
 62
     7
100
AcDbVertex
100
AcDb2dVertex
 10
375.45
 20
232.5
 30
0.0
  0
VERTEX
  5
558
100
AcDbEntity
  8
LAY-1
  6
CONTINUOUS
 62
     7
100
AcDbVertex
100
AcDb2dVertex
 10
524.95
 20
232.5
 30
0.0
  0
VERTEX
  5
559
100
AcDbEntity
  8
LAY-1
  6
CONTINUOUS
 62
     7
100
AcDbVertex
100
AcDb2dVertex
 10
524.95
 20
203.5
 30
0.0
  0
VERTEX
  5
55A
100
AcDbEntity
  8
LAY-1
  6
CONTINUOUS
 62
     7
100
AcDbVertex
100
AcDb2dVertex
 10
375.45
 20
203.5
 30
0.0
  0
VERTEX
  5
55B
100
AcDbEntity
  8
LAY-1
  6
CONTINUOUS
 62
     7
100
AcDbVertex
100
AcDb2dVertex
 10
375.45
 20
232.5
 30
0.0
  0
SEQEND
  5
55C
100
AcDbEntity
  8
LAY-1
  6
CONTINUOUS
 62
     7
  0
DIMENSION
  5
569
100
AcDbEntity
  8
LAY-1
  6
CONTINUOUS
 62
     7
100
AcDbDimension
  2
*D14
 10
645.2
 20
706.0
 30
0.0
 11
450.2
 21
715.25
 31
0.0
 70
   160
  1
Ｗ = <>
  3
STANDARD
100
AcDbAlignedDimension
 13
255.2
 23
593.55
 33
0.0
 14
645.2
 24
593.55
 34
0.0
100
AcDbRotatedDimension
1001
ACAD
1000
DSTYLE
1002
{
1070
     6
1000
_EX_BCIR
1070
     7
1000
_EX_BCIR
1070
    41
1040
5.0
1070
    42
1040
14.95
1070
    44
1040
0.0
1070
    73
1070
     0
1070
    74
1070
     0
1070
    75
1070
     0
1070
    76
1070
     0
1070
    77
1070
     1
1070
    78
1070
     8
1070
   140
1040
13.5
1070
   147
1040
1.75
1070
   173
1070
     1
1070
   176
1070
     7
1070
   177
1070
     7
1070
   178
1070
     7
1070
   271
1070
     2
1070
   279
1070
     2
1070
   280
1070
     0
1070
   287
1070
     5
1070
   340
1005
568
1002
}
  0
DIMENSION
  5
575
100
AcDbEntity
  8
LAY-1
  6
CONTINUOUS
 62
     7
100
AcDbDimension
  2
*D15
 10
165.25
 20
298.55
 30
0.0
 11
156.0
 21
446.05
 31
0.0
 70
   160
  1
Ｈ = <>
  3
STANDARD
100
AcDbAlignedDimension
 13
255.2
 23
593.55
 33
0.0
 14
255.2
 24
298.55
 34
0.0
 50
90.0
100
AcDbRotatedDimension
1001
ACAD
1000
DSTYLE
1002
{
1070
     6
1000
_EX_BCIR
1070
     7
1000
_EX_BCIR
1070
    41
1040
5.0
1070
    42
1040
18.7
1070
    44
1040
0.0
1070
    73
1070
     0
1070
    74
1070
     0
1070
    75
1070
     0
1070
    76
1070
     0
1070
    77
1070
     1
1070
    78
1070
     8
1070
   140
1040
13.5
1070
   147
1040
1.75
1070
   173
1070
     1
1070
   176
1070
     7
1070
   177
1070
     7
1070
   178
1070
     7
1070
   271
1070
     2
1070
   279
1070
     2
1070
   280
1070
     0
1070
   287
1070
     5
1070
   340
1005
568
1002
}
  0
LINE
  5
576
100
AcDbEntity
  8
LAY-1
  6
CONTINUOUS
 62
     7
100
AcDbLine
 10
258.2
 20
535.05
 30
0.0
 11
272.7
 21
535.05
 31
0.0
  0
LINE
  5
577
100
AcDbEntity
  8
LAY-1
  6
CONTINUOUS
 62
     7
100
AcDbLine
 10
258.2
 20
545.05
 30
0.0
 11
272.7
 21
545.05
 31
0.0
  0
LINE
  5
578
100
AcDbEntity
  8
LAY-1
  6
CONTINUOUS
 62
     7
100
AcDbLine
 10
642.2
 20
535.05
 30
0.0
 11
627.7
 21
535.05
 31
0.0
  0
LINE
  5
579
100
AcDbEntity
  8
LAY-1
  6
CONTINUOUS
 62
     7
100
AcDbLine
 10
642.2
 20
545.05
 30
0.0
 11
627.7
 21
545.05
 31
0.0
  0
DIMENSION
  5
583
100
AcDbEntity
  8
LAY-1
  6
CONTINUOUS
 62
     7
100
AcDbDimension
  2
*D16
 10
1053.0
 20
681.0
 30
0.0
 11
1043.5
 21
690.25
 31
0.0
 70
   160
  3
STANDARD
100
AcDbAlignedDimension
 13
1034.0
 23
564.5
 33
0.0
 14
1053.0
 24
616.05
 34
0.0
100
AcDbRotatedDimension
1001
ACAD
1000
DSTYLE
1002
{
1070
     6
1000
_EX_BCIR
1070
     7
1000
_EX_BCIR
1070
    41
1040
5.0
1070
    42
1040
0.0
1070
    44
1040
0.0
1070
    73
1070
     0
1070
    74
1070
     0
1070
    75
1070
     1
1070
    76
1070
     1
1070
    77
1070
     1
1070
    78
1070
     8
1070
   140
1040
13.5
1070
   147
1040
1.75
1070
   173
1070
     1
1070
   176
1070
     7
1070
   177
1070
     7
1070
   178
1070
     7
1070
   271
1070
     2
1070
   279
1070
     2
1070
   280
1070
     0
1070
   287
1070
     5
1070
   340
1005
568
1002
}
  0
DIMENSION
  5
58C
100
AcDbEntity
  8
LAY-1
  6
CONTINUOUS
 62
     7
100
AcDbDimension
  2
*D17
 10
1184.0
 20
681.0
 30
0.0
 11
1118.5
 21
690.25
 31
0.0
 70
   160
  3
STANDARD
100
AcDbAlignedDimension
 13
1053.0
 23
593.55
 33
0.0
 14
1184.0
 24
616.05
 34
0.0
100
AcDbRotatedDimension
1001
ACAD
1000
DSTYLE
1002
{
1070
     6
1000
_EX_NONE
1070
     7
1000
_EX_BCIR
1070
    41
1040
5.0
1070
    42
1040
18.95
1070
    44
1040
0.0
1070
    73
1070
     0
1070
    74
1070
     0
1070
    75
1070
     0
1070
    76
1070
     1
1070
    77
1070
     1
1070
    78
1070
     8
1070
   140
1040
13.5
1070
   147
1040
1.75
1070
   173
1070
     1
1070
   176
1070
     7
1070
   177
1070
     7
1070
   178
1070
     7
1070
   271
1070
     2
1070
   279
1070
     2
1070
   280
1070
     0
1070
   287
1070
     5
1070
   340
1005
568
1002
}
  0
DIMENSION
  5
598
100
AcDbEntity
  8
LAY-1
  6
CONTINUOUS
 62
     7
100
AcDbDimension
  2
*D18
 10
1184.0
 20
706.0
 30
0.0
 11
1109.0
 21
715.25
 31
0.0
 70
   160
  1
Ｄ = <>
  3
STANDARD
100
AcDbAlignedDimension
 13
1034.0
 23
542.0
 33
0.0
 14
1184.0
 24
593.55
 34
0.0
100
AcDbRotatedDimension
1001
ACAD
1000
DSTYLE
1002
{
1070
     6
1000
_EX_BCIR
1070
     7
1000
_EX_BCIR
1070
    41
1040
5.0
1070
    42
1040
30.999999
1070
    44
1040
0.0
1070
    73
1070
     0
1070
    74
1070
     0
1070
    75
1070
     0
1070
    76
1070
     0
1070
    77
1070
     1
1070
    78
1070
     8
1070
   140
1040
13.5
1070
   147
1040
1.75
1070
   173
1070
     1
1070
   176
1070
     7
1070
   177
1070
     7
1070
   178
1070
     7
1070
   271
1070
     2
1070
   279
1070
     2
1070
   280
1070
     0
1070
   287
1070
     5
1070
   340
1005
568
1002
}
  0
DIMENSION
  5
5A4
100
AcDbEntity
  8
LAY-1
  6
CONTINUOUS
 62
     7
100
AcDbDimension
  2
*D19
 10
645.2
 20
1271.0
 30
0.0
 11
450.2
 21
1280.25
 31
0.0
 70
   160
  1
Ｗ = <>
  3
STANDARD
100
AcDbAlignedDimension
 13
255.2
 23
1169.55
 33
0.0
 14
645.2
 24
1169.55
 34
0.0
100
AcDbRotatedDimension
1001
ACAD
1000
DSTYLE
1002
{
1070
     6
1000
_EX_BCIR
1070
     7
1000
_EX_BCIR
1070
    41
1040
5.0
1070
    42
1040
14.95
1070
    44
1040
0.0
1070
    73
1070
     0
1070
    74
1070
     0
1070
    75
1070
     0
1070
    76
1070
     0
1070
    77
1070
     1
1070
    78
1070
     8
1070
   140
1040
13.5
1070
   147
1040
1.75
1070
   173
1070
     1
1070
   176
1070
     7
1070
   177
1070
     7
1070
   178
1070
     7
1070
   271
1070
     2
1070
   279
1070
     2
1070
   280
1070
     0
1070
   287
1070
     5
1070
   340
1005
568
1002
}
  0
DIMENSION
  5
5B0
100
AcDbEntity
  8
LAY-1
  6
CONTINUOUS
 62
     7
100
AcDbDimension
  2
*D20
 10
1448.55
 20
298.55
 30
0.0
 11
1439.3
 21
446.05
 31
0.0
 70
   160
  1
Ｈ = <>
  3
STANDARD
100
AcDbAlignedDimension
 13
1538.5
 23
593.55
 33
0.0
 14
1538.5
 24
298.55
 34
0.0
 50
90.0
100
AcDbRotatedDimension
1001
ACAD
1000
DSTYLE
1002
{
1070
     6
1000
_EX_BCIR
1070
     7
1000
_EX_BCIR
1070
    41
1040
5.0
1070
    42
1040
18.7
1070
    44
1040
0.0
1070
    73
1070
     0
1070
    74
1070
     0
1070
    75
1070
     0
1070
    76
1070
     0
1070
    77
1070
     1
1070
    78
1070
     8
1070
   140
1040
13.5
1070
   147
1040
1.75
1070
   173
1070
     1
1070
   176
1070
     7
1070
   177
1070
     7
1070
   178
1070
     7
1070
   271
1070
     2
1070
   279
1070
     2
1070
   280
1070
     0
1070
   287
1070
     5
1070
   340
1005
568
1002
}
  0
DIMENSION
  5
5BC
100
AcDbEntity
  8
LAY-1
  6
CONTINUOUS
 62
     7
100
AcDbDimension
  2
*D21
 10
1928.5
 20
706.0
 30
0.0
 11
1733.5
 21
715.25
 31
0.0
 70
   160
  1
Ｗ = <>
  3
STANDARD
100
AcDbAlignedDimension
 13
1538.5
 23
593.55
 33
0.0
 14
1928.5
 24
593.55
 34
0.0
100
AcDbRotatedDimension
1001
ACAD
1000
DSTYLE
1002
{
1070
     6
1000
_EX_BCIR
1070
     7
1000
_EX_BCIR
1070
    41
1040
5.0
1070
    42
1040
18.95
1070
    44
1040
0.0
1070
    73
1070
     0
1070
    74
1070
     0
1070
    75
1070
     0
1070
    76
1070
     0
1070
    77
1070
     1
1070
    78
1070
     8
1070
   140
1040
13.5
1070
   147
1040
1.75
1070
   173
1070
     1
1070
   176
1070
     7
1070
   177
1070
     7
1070
   178
1070
     7
1070
   271
1070
     2
1070
   279
1070
     2
1070
   280
1070
     0
1070
   287
1070
     5
1070
   340
1005
568
1002
}
  0
LINE
  5
5BD
100
AcDbEntity
  8
LAY-1
  6
CONTINUOUS
 62
     7
100
AcDbLine
 10
1548.5
 20
308.85
 30
0.0
 11
1548.5
 21
583.55
 31
0.0
  0
LINE
  5
5BE
100
AcDbEntity
  8
LAY-1
  6
CONTINUOUS
 62
     7
100
AcDbLine
 10
1918.5
 20
308.85
 30
0.0
 11
1918.5
 21
583.55
 31
0.0
  0
POLYLINE
  5
5BF
100
AcDbEntity
  8
LAY-1
  6
CONTINUOUS
 62
     7
100
AcDb2dPolyline
 66
     1
 10
0.0
 20
0.0
 30
0.0
 70
   128
  0
VERTEX
  5
5C0
100
AcDbEntity
  8
LAY-1
  6
CONTINUOUS
 62
     7
100
AcDbVertex
100
AcDb2dVertex
 10
1548.5
 20
308.85
 30
0.0
  0
VERTEX
  5
5C1
100
AcDbEntity
  8
LAY-1
  6
CONTINUOUS
 62
     7
100
AcDbVertex
100
AcDb2dVertex
 10
1538.5
 20
298.85
 30
0.0
  0
SEQEND
  5
5C2
100
AcDbEntity
  8
LAY-1
  6
CONTINUOUS
 62
     7
  0
POLYLINE
  5
5C3
100
AcDbEntity
  8
LAY-1
  6
CONTINUOUS
 62
     7
100
AcDb2dPolyline
 66
     1
 10
0.0
 20
0.0
 30
0.0
 70
   128
  0
VERTEX
  5
5C4
100
AcDbEntity
  8
LAY-1
  6
CONTINUOUS
 62
     7
100
AcDbVertex
100
AcDb2dVertex
 10
1918.5
 20
308.85
 30
0.0
  0
VERTEX
  5
5C5
100
AcDbEntity
  8
LAY-1
  6
CONTINUOUS
 62
     7
100
AcDbVertex
100
AcDb2dVertex
 10
1928.5
 20
298.85
 30
0.0
  0
SEQEND
  5
5C6
100
AcDbEntity
  8
LAY-1
  6
CONTINUOUS
 62
     7
  0
POLYLINE
  5
5C7
100
AcDbEntity
  8
LAY-1
  6
CONTINUOUS
 62
     7
100
AcDb2dPolyline
 66
     1
 10
0.0
 20
0.0
 30
0.0
 70
   128
  0
VERTEX
  5
5C8
100
AcDbEntity
  8
LAY-1
  6
CONTINUOUS
 62
     7
100
AcDbVertex
100
AcDb2dVertex
 10
1538.5
 20
593.55
 30
0.0
  0
VERTEX
  5
5C9
100
AcDbEntity
  8
LAY-1
  6
CONTINUOUS
 62
     7
100
AcDbVertex
100
AcDb2dVertex
 10
1548.5
 20
583.55
 30
0.0
  0
SEQEND
  5
5CA
100
AcDbEntity
  8
LAY-1
  6
CONTINUOUS
 62
     7
  0
POLYLINE
  5
5CB
100
AcDbEntity
  8
LAY-1
  6
CONTINUOUS
 62
     7
100
AcDb2dPolyline
 66
     1
 10
0.0
 20
0.0
 30
0.0
 70
   128
  0
VERTEX
  5
5CC
100
AcDbEntity
  8
LAY-1
  6
CONTINUOUS
 62
     7
100
AcDbVertex
100
AcDb2dVertex
 10
1928.5
 20
593.55
 30
0.0
  0
VERTEX
  5
5CD
100
AcDbEntity
  8
LAY-1
  6
CONTINUOUS
 62
     7
100
AcDbVertex
100
AcDb2dVertex
 10
1918.5
 20
583.55
 30
0.0
  0
SEQEND
  5
5CE
100
AcDbEntity
  8
LAY-1
  6
CONTINUOUS
 62
     7
  0
LINE
  5
5CF
100
AcDbEntity
  8
LAY-1
  6
CONTINUOUS
 62
     6
100
AcDbLine
 10
1538.5
 20
593.55
 30
0.0
 11
1538.5
 21
298.55
 31
0.0
  0
LINE
  5
5D0
100
AcDbEntity
  8
LAY-1
  6
CONTINUOUS
 62
     6
100
AcDbLine
 10
1928.5
 20
593.55
 30
0.0
 11
1928.5
 21
298.55
 31
0.0
  0
LINE
  5
5D1
100
AcDbEntity
  8
LAY-1
  6
CONTINUOUS
 62
     6
100
AcDbLine
 10
1538.5
 20
298.55
 30
0.0
 11
1928.5
 21
298.55
 31
0.0
  0
DIMENSION
  5
5DC
100
AcDbEntity
  8
LAY-1
  6
CONTINUOUS
 62
     7
100
AcDbDimension
  2
*D22
 10
1733.5
 20
681.0
 30
0.0
 11
1636.0
 21
690.25
 31
0.0
 70
   160
  3
STANDARD
100
AcDbAlignedDimension
 13
1538.5
 23
681.0
 33
0.0
 14
1733.5
 24
456.05
 34
0.0
100
AcDbRotatedDimension
1001
ACAD
1000
DSTYLE
1002
{
1070
     6
1000
_EX_BCIR
1070
     7
1000
_EX_BCIR
1070
    41
1040
5.0
1070
    42
1040
19.45
1070
    44
1040
0.0
1070
    73
1070
     0
1070
    74
1070
     0
1070
    75
1070
     1
1070
    76
1070
     0
1070
    77
1070
     1
1070
    78
1070
     8
1070
   140
1040
13.5
1070
   147
1040
1.75
1070
   173
1070
     1
1070
   176
1070
     7
1070
   177
1070
     7
1070
   178
1070
     7
1070
   271
1070
     2
1070
   279
1070
     2
1070
   280
1070
     0
1070
   287
1070
     5
1070
   340
1005
568
1002
}
  0
DIMENSION
  5
5E4
100
AcDbEntity
  8
LAY-1
  6
CONTINUOUS
 62
     7
100
AcDbDimension
  2
*D23
 10
1928.5
 20
681.0
 30
0.0
 11
1831.0
 21
690.25
 31
0.0
 70
   160
  3
STANDARD
100
AcDbAlignedDimension
 13
1733.5
 23
478.55
 33
0.0
 14
1928.5
 24
681.0
 34
0.0
100
AcDbRotatedDimension
1001
ACAD
1000
DSTYLE
1002
{
1070
     6
1000
_EX_NONE
1070
     7
1000
_EX_BCIR
1070
    41
1040
5.0
1070
    42
1040
0.0
1070
    44
1040
0.0
1070
    73
1070
     0
1070
    74
1070
     0
1070
    75
1070
     1
1070
    76
1070
     1
1070
    77
1070
     1
1070
    78
1070
     8
1070
   140
1040
13.5
1070
   147
1040
1.75
1070
   173
1070
     1
1070
   176
1070
     7
1070
   177
1070
     7
1070
   178
1070
     7
1070
   271
1070
     2
1070
   279
1070
     2
1070
   280
1070
     0
1070
   287
1070
     5
1070
   340
1005
568
1002
}
  0
DIMENSION
  5
5EF
100
AcDbEntity
  8
LAY-1
  6
CONTINUOUS
 62
     7
100
AcDbDimension
  2
*D24
 10
1473.55
 20
446.05
 30
0.0
 11
1464.3
 21
386.05
 31
0.0
 70
   160
  3
STANDARD
100
AcDbAlignedDimension
 13
1473.55
 23
326.05
 33
0.0
 14
1588.5
 24
446.05
 34
0.0
 50
90.0
100
AcDbRotatedDimension
1001
ACAD
1000
DSTYLE
1002
{
1070
     6
1000
_EX_BCIR
1070
     7
1000
_EX_BCIR
1070
    41
1040
5.0
1070
    42
1040
0.0
1070
    44
1040
0.0
1070
    73
1070
     0
1070
    74
1070
     0
1070
    75
1070
     1
1070
    76
1070
     0
1070
    77
1070
     1
1070
    78
1070
     8
1070
   140
1040
13.5
1070
   147
1040
1.75
1070
   173
1070
     1
1070
   176
1070
     7
1070
   177
1070
     7
1070
   178
1070
     7
1070
   271
1070
     2
1070
   279
1070
     2
1070
   280
1070
     0
1070
   287
1070
     5
1070
   340
1005
568
1002
}
  0
DIMENSION
  5
5F7
100
AcDbEntity
  8
LAY-1
  6
CONTINUOUS
 62
     7
100
AcDbDimension
  2
*D25
 10
1473.55
 20
593.55
 30
0.0
 11
1464.3
 21
519.8
 31
0.0
 70
   160
  3
STANDARD
100
AcDbAlignedDimension
 13
1588.5
 23
446.05
 33
0.0
 14
1473.55
 24
593.55
 34
0.0
 50
90.0
100
AcDbRotatedDimension
1001
ACAD
1000
DSTYLE
1002
{
1070
     6
1000
_EX_NONE
1070
     7
1000
_EX_BCIR
1070
    41
1040
5.0
1070
    42
1040
0.0
1070
    44
1040
0.0
1070
    73
1070
     0
1070
    74
1070
     0
1070
    75
1070
     1
1070
    76
1070
     1
1070
    77
1070
     1
1070
    78
1070
     8
1070
   140
1040
13.5
1070
   147
1040
1.75
1070
   173
1070
     1
1070
   176
1070
     7
1070
   177
1070
     7
1070
   178
1070
     7
1070
   271
1070
     2
1070
   279
1070
     2
1070
   280
1070
     0
1070
   287
1070
     5
1070
   340
1005
568
1002
}
  0
DIMENSION
  5
603
100
AcDbEntity
  8
LAY-1
  6
CONTINUOUS
 62
     7
100
AcDbDimension
  2
*D26
 10
165.25
 20
1169.0
 30
0.0
 11
156.0
 21
1094.0
 31
0.0
 70
   160
  1
Ｄ = <>
  3
STANDARD
100
AcDbAlignedDimension
 13
265.5
 23
1019.0
 33
0.0
 14
255.2
 24
1169.0
 34
0.0
 50
90.0
100
AcDbRotatedDimension
1001
ACAD
1000
DSTYLE
1002
{
1070
     6
1000
_EX_BCIR
1070
     7
1000
_EX_BCIR
1070
    41
1040
5.0
1070
    42
1040
30.999999
1070
    44
1040
0.0
1070
    73
1070
     0
1070
    74
1070
     0
1070
    75
1070
     0
1070
    76
1070
     0
1070
    77
1070
     1
1070
    78
1070
     8
1070
   140
1040
13.5
1070
   147
1040
1.75
1070
   173
1070
     1
1070
   176
1070
     7
1070
   177
1070
     7
1070
   178
1070
     7
1070
   271
1070
     2
1070
   279
1070
     2
1070
   280
1070
     0
1070
   287
1070
     5
1070
   340
1005
568
1002
}
  0
CIRCLE
  5
604
100
AcDbEntity
  8
LAY-1
  6
CONTINUOUS
 62
     7
100
AcDbCircle
 10
541.06273
 20
1201.95
 30
0.0
 40
12.5
  0
MTEXT
  5
605
100
AcDbEntity
  8
LAY-1
  6
CONTINUOUS
 62
     7
100
AcDbMText
 10
541.56273
 20
1209.904951
 30
0.0
 40
15.909903
 41
47.729708
 71
     2
 72
     1
  1
{1}
  7
EXCADSTD
  0
LEADER
  5
606
100
AcDbEntity
  8
LAY-1
  6
CONTINUOUS
 62
     7
100
AcDbLeader
  3
STANDARD
 73
     3
 74
     1
 75
     0
 40
0.0
 76
     2
 10
516.82293
 20
1143.69598
 30
0.0
 10
536.260559
 20
1190.409239
 30
0.0
 77
     7
1001
ACAD
1000
DSTYLE
1002
{
1070
    41
1040
10.0
1070
     5
1000
_EX_NORM
1070
     6
1000
_EX_NORM
1070
     7
1000
_EX_NORM
1070
   341
1005
26
1002
}
  0
LEADER
  5
607
100
AcDbEntity
  8
LAY-1
  6
CONTINUOUS
 62
     7
100
AcDbLeader
  3
STANDARD
 73
     3
 74
     1
 75
     0
 40
0.0
 76
     2
 10
520.219041
 20
1020.0
 30
0.0
 10
539.893774
 20
976.393729
 30
0.0
 77
     7
1001
ACAD
1000
DSTYLE
1002
{
1070
    41
1040
10.0
1070
     5
1000
_EX_NORM
1070
     6
1000
_EX_NORM
1070
     7
1000
_EX_NORM
1070
   341
1005
26
1002
}
  0
CIRCLE
  5
608
100
AcDbEntity
  8
LAY-1
  6
CONTINUOUS
 62
     7
100
AcDbCircle
 10
545.03461
 20
964.999792
 30
0.0
 40
12.5
  0
MTEXT
  5
609
100
AcDbEntity
  8
LAY-1
  6
CONTINUOUS
 62
     7
100
AcDbMText
 10
545.53461
 20
972.954743
 30
0.0
 40
15.909903
 41
47.729708
 71
     2
 72
     1
  1
{\W0.8400;５}
  7
EXCADSTD
  0
LEADER
  5
60A
100
AcDbEntity
  8
LAY-1
  6
CONTINUOUS
 62
     7
100
AcDbLeader
  3
STANDARD
 73
     3
 74
     1
 75
     0
 40
0.0
 76
     2
 10
375.725933
 20
575.222409
 30
0.0
 10
352.526461
 20
625.223235
 30
0.0
 77
     7
1001
ACAD
1000
DSTYLE
1002
{
1070
    41
1040
10.0
1070
     5
1000
_EX_NORM
1070
     6
1000
_EX_NORM
1070
     7
1000
_EX_NORM
1070
   341
1005
26
1002
}
  0
CIRCLE
  5
60B
100
AcDbEntity
  8
LAY-1
  6
CONTINUOUS
 62
     7
100
AcDbCircle
 10
347.265405
 20
636.562163
 30
0.0
 40
12.5
  0
MTEXT
  5
60C
100
AcDbEntity
  8
LAY-1
  6
CONTINUOUS
 62
     7
100
AcDbMText
 10
347.765405
 20
644.517114
 30
0.0
 40
15.909903
 41
47.729708
 71
     2
 72
     1
  1
{\W0.8400;５}
  7
EXCADSTD
  0
LINE
  5
60D
100
AcDbEntity
  8
LAY-1
  6
CONTINUOUS
 62
     7
100
AcDbLine
 10
255.2
 20
593.55
 30
0.0
 11
255.2
 21
298.55
 31
0.0
  0
LINE
  5
60E
100
AcDbEntity
  8
LAY-1
  6
CONTINUOUS
 62
     6
100
AcDbLine
 10
273.7
 20
591.05
 30
0.0
 11
273.7
 21
301.05
 31
0.0
  0
LINE
  5
60F
100
AcDbEntity
  8
LAY-1
  6
CONTINUOUS
 62
     6
100
AcDbLine
 10
257.2
 20
591.05
 30
0.0
 11
257.2
 21
301.05
 31
0.0
  0
CIRCLE
  5
610
100
AcDbEntity
  8
LAY-1
  6
CONTINUOUS
 62
     7
100
AcDbCircle
 10
675.127647
 20
531.911169
 30
0.0
 40
12.5
  0
MTEXT
  5
611
100
AcDbEntity
  8
LAY-1
  6
CONTINUOUS
 62
     7
100
AcDbMText
 10
675.627647
 20
539.86612
 30
0.0
 40
15.909903
 41
47.729708
 71
     2
 72
     1
  1
{\W0.8400;２}
  7
EXCADSTD
  0
LEADER
  5
612
100
AcDbEntity
  8
LAY-1
  6
CONTINUOUS
 62
     7
100
AcDbLeader
  3
STANDARD
 73
     3
 74
     1
 75
     0
 40
0.0
 76
     2
 10
634.493032
 20
503.343425
 30
0.0
 10
664.901872
 20
524.722044
 30
0.0
 77
     7
1001
ACAD
1000
DSTYLE
1002
{
1070
    41
1040
10.0
1070
     5
1000
_EX_NORM
1070
     6
1000
_EX_NORM
1070
     7
1000
_EX_NORM
1070
   341
1005
26
1002
}
  0
CIRCLE
  5
613
100
AcDbEntity
  8
LAY-1
  6
CONTINUOUS
 62
     7
100
AcDbCircle
 10
683.337076
 20
998.264968
 30
0.0
 40
12.5
  0
MTEXT
  5
614
100
AcDbEntity
  8
LAY-1
  6
CONTINUOUS
 62
     7
100
AcDbMText
 10
683.837076
 20
1006.21992
 30
0.0
 40
15.909903
 41
47.729708
 71
     2
 72
     1
  1
{\W0.8400;２}
  7
EXCADSTD
  0
LEADER
  5
615
100
AcDbEntity
  8
LAY-1
  6
CONTINUOUS
 62
     7
100
AcDbLeader
  3
STANDARD
 73
     3
 74
     1
 75
     0
 40
0.0
 76
     2
 10
635.954712
 20
1026.084037
 30
0.0
 10
672.557641
 20
1004.593775
 30
0.0
 77
     7
1001
ACAD
1000
DSTYLE
1002
{
1070
    41
1040
10.0
1070
     5
1000
_EX_NORM
1070
     6
1000
_EX_NORM
1070
     7
1000
_EX_NORM
1070
   341
1005
26
1002
}
  0
MTEXT
  5
616
100
AcDbEntity
  8
LAY-1
  6
CONTINUOUS
 62
     7
100
AcDbMText
 10
1105.675
 20
1326.425
 30
0.0
 40
11.8125
 41
233.8875
 71
     1
 72
     1
  1
{\W0.9000;扉･両サイド}
  7
EXCADTTF4
  0
MTEXT
  5
617
100
AcDbEntity
  8
LAY-1
  6
CONTINUOUS
 62
     7
100
AcDbMText
 10
1105.675
 20
1296.425
 30
0.0
 40
11.8125
 41
170.1
 71
     1
 72
     1
  1
{\W0.9000;取出し扉}
  7
EXCADTTF4
  0
MTEXT
  5
618
100
AcDbEntity
  8
LAY-1
  6
CONTINUOUS
 62
     7
100
AcDbMText
 10
1317.075
 20
1326.425
 30
0.0
 40
11.8125
 41
212.625
 71
     1
 72
     1
  1
{\W0.9000;ＡＢＳ樹脂}
  7
EXCADTTF4
  0
MTEXT
  5
619
100
AcDbEntity
  8
LAY-1
  6
CONTINUOUS
 62
     7
100
AcDbMText
 10
1317.075
 20
1296.425
 30
0.0
 40
11.8125
 41
276.4125
 71
     1
 72
     1
  1
{\W0.9000;ＳＵＳ-３０４}
  7
EXCADTTF4
  0
LINE
  5
61A
100
AcDbEntity
  8
LAY-1
  6
CONTINUOUS
 62
     6
100
AcDbLine
 10
1060.0
 20
1335.0
 30
0.0
 11
2050.0
 21
1335.0
 31
0.0
  0
LINE
  5
61B
100
AcDbEntity
  8
LAY-1
  6
CONTINUOUS
 62
     6
100
AcDbLine
 10
1060.0
 20
1305.0
 30
0.0
 11
2050.0
 21
1305.0
 31
0.0
  0
MTEXT
  5
61C
100
AcDbEntity
  8
LAY-1
  6
CONTINUOUS
 62
     7
100
AcDbMText
 10
1068.675
 20
1357.205
 30
0.0
 40
11.8125
 41
42.525
 71
     1
 72
     1
  1
{\W0.9000;１}
  7
EXCADTTF4
  0
MTEXT
  5
61D
100
AcDbEntity
  8
LAY-1
  6
CONTINUOUS
 62
     7
100
AcDbMText
 10
1068.675
 20
1267.205
 30
0.0
 40
11.8125
 41
42.525
 71
     1
 72
     1
  1
{\W0.9000;４}
  7
EXCADTTF4
  0
MTEXT
  5
61E
100
AcDbEntity
  8
LAY-1
  6
CONTINUOUS
 62
     7
100
AcDbMText
 10
1068.675
 20
1237.205
 30
0.0
 40
11.8125
 41
42.525
 71
     1
 72
     1
  1
{\W0.9000;５}
  7
EXCADTTF4
  0
MTEXT
  5
61F
100
AcDbEntity
  8
LAY-1
  6
CONTINUOUS
 62
     7
100
AcDbMText
 10
1068.675
 20
1207.205
 30
0.0
 40
11.8125
 41
42.525
 71
     1
 72
     1
  1
{\W0.9000;６}
  7
EXCADTTF4
  0
MTEXT
  5
620
100
AcDbEntity
  8
LAY-1
  6
CONTINUOUS
 62
     7
100
AcDbMText
 10
1068.675
 20
1327.205
 30
0.0
 40
11.8125
 41
42.525
 71
     1
 72
     1
  1
{\W0.9000;２}
  7
EXCADTTF4
  0
MTEXT
  5
621
100
AcDbEntity
  8
LAY-1
  6
CONTINUOUS
 62
     7
100
AcDbMText
 10
1068.675
 20
1297.205
 30
0.0
 40
11.8125
 41
42.525
 71
     1
 72
     1
  1
{\W0.9000;３}
  7
EXCADTTF4
  0
CIRCLE
  5
622
100
AcDbEntity
  8
LAY-1
  6
CONTINUOUS
 62
     7
100
AcDbCircle
 10
1150.107051
 20
634.314583
 30
0.0
 40
12.5
  0
MTEXT
  5
623
100
AcDbEntity
  8
LAY-1
  6
CONTINUOUS
 62
     7
100
AcDbMText
 10
1150.607051
 20
642.269534
 30
0.0
 40
15.909903
 41
47.729708
 71
     2
 72
     1
  1
{1}
  7
EXCADSTD
  0
LEADER
  5
624
100
AcDbEntity
  8
LAY-1
  6
CONTINUOUS
 62
     7
100
AcDbLeader
  3
STANDARD
 73
     3
 74
     1
 75
     0
 40
0.0
 76
     2
 10
1120.414724
 20
556.923026
 30
0.0
 10
1145.62949
 20
622.644045
 30
0.0
 77
     7
1001
ACAD
1000
DSTYLE
1002
{
1070
    41
1040
10.0
1070
     5
1000
_EX_NORM
1070
     6
1000
_EX_NORM
1070
     7
1000
_EX_NORM
1070
   341
1005
26
1002
}
  0
MTEXT
  5
625
100
AcDbEntity
  8
LAY-1
  6
CONTINUOUS
 62
     7
100
AcDbMText
 10
1525.775
 20
1326.425
 30
0.0
 40
11.8125
 41
127.575
 71
     1
 72
     1
  1
{\W0.9000;色：黒}
  7
EXCADTTF4
  0
MTEXT
  5
626
100
AcDbEntity
  8
LAY-1
  6
CONTINUOUS
 62
     7
100
AcDbMText
 10
1525.775
 20
1236.425
 30
0.0
 40
11.8125
 41
127.575
 71
     1
 72
     1
  1
{\W0.9000;Ｎｏ４}
  7
EXCADTTF4
  0
MTEXT
  5
627
100
AcDbEntity
  8
LAY-1
  6
CONTINUOUS
 62
     7
100
AcDbMText
 10
1796.275
 20
1236.425
 30
0.0
 40
11.8125
 41
148.8375
 71
     1
 72
     1
  1
{\W0.9000;ｔ０.６}
  7
EXCADTTF4
  0
MTEXT
  5
628
100
AcDbEntity
  8
LAY-1
  6
CONTINUOUS
 62
     7
100
AcDbMText
 10
1796.275
 20
1266.425
 30
0.0
 40
11.8125
 41
607.5
 71
     1
 72
     1
  1
{\W0.8571;７９通リ（４３９１Ｓ-ＩＷ-Ｕ）}
  7
EXCADTTF4
  0
MTEXT
  5
629
100
AcDbEntity
  8
LAY-1
  6
CONTINUOUS
 62
     7
100
AcDbMText
 10
1742.475
 20
1327.205
 30
0.0
 40
11.8125
 41
42.525
 71
     1
 72
     1
  1
{\W0.9000;２}
  7
EXCADTTF4
  0
MTEXT
  5
62A
100
AcDbEntity
  8
LAY-1
  6
CONTINUOUS
 62
     7
100
AcDbMText
 10
1742.475
 20
1297.205
 30
0.0
 40
11.8125
 41
42.525
 71
     1
 72
     1
  1
{\W0.9000;１}
  7
EXCADTTF4
  0
MTEXT
  5
62B
100
AcDbEntity
  8
LAY-1
  6
CONTINUOUS
 62
     7
100
AcDbMText
 10
1742.475
 20
1267.205
 30
0.0
 40
11.8125
 41
42.525
 71
     1
 72
     1
  1
{\W0.9000;１}
  7
EXCADTTF4
  0
MTEXT
  5
62C
100
AcDbEntity
  8
LAY-1
  6
CONTINUOUS
 62
     7
100
AcDbMText
 10
1742.475
 20
1237.205
 30
0.0
 40
11.8125
 41
42.525
 71
     1
 72
     1
  1
{\W0.9000;１}
  7
EXCADTTF4
  0
CIRCLE
  5
62D
100
AcDbEntity
  8
LAY-1
  6
CONTINUOUS
 62
     7
100
AcDbCircle
 10
1001.630743
 20
577.494263
 30
0.0
 40
12.5
  0
MTEXT
  5
62E
100
AcDbEntity
  8
LAY-1
  6
CONTINUOUS
 62
     7
100
AcDbMText
 10
1002.130743
 20
585.449214
 30
0.0
 40
15.909903
 41
47.729708
 71
     2
 72
     1
  1
{\W0.8400;２}
  7
EXCADSTD
  0
LEADER
  5
62F
100
AcDbEntity
  8
LAY-1
  6
CONTINUOUS
 62
     7
100
AcDbLeader
  3
STANDARD
 73
     3
 74
     1
 75
     0
 40
0.0
 76
     2
 10
1042.265358
 20
548.926519
 30
0.0
 10
1011.856518
 20
570.305137
 30
0.0
 77
     7
1001
ACAD
1000
DSTYLE
1002
{
1070
    41
1040
10.0
1070
     5
1000
_EX_NORM
1070
     6
1000
_EX_NORM
1070
     7
1000
_EX_NORM
1070
   341
1005
26
1002
}
  0
MTEXT
  5
630
100
AcDbEntity
  8
LAY-1
  6
CONTINUOUS
 62
     7
100
AcDbMText
 10
1317.075
 20
1236.425
 30
0.0
 40
11.8125
 41
276.4125
 71
     1
 72
     1
  1
{\W0.9000;ＳＵＳ-３０４}
  7
EXCADTTF4
  0
LEADER
  5
631
100
AcDbEntity
  8
LAY-1
  6
CONTINUOUS
 62
     7
100
AcDbLeader
  3
STANDARD
 73
     3
 74
     1
 75
     0
 40
0.0
 76
     2
 10
1035.227698
 20
484.21425
 30
0.0
 10
1011.388208
 20
455.693704
 30
0.0
 77
     7
1001
ACAD
1000
DSTYLE
1002
{
1070
    41
1040
10.0
1070
     5
1000
_EX_NORM
1070
     6
1000
_EX_NORM
1070
     7
1000
_EX_NORM
1070
   341
1005
26
1002
}
  0
CIRCLE
  5
632
100
AcDbEntity
  8
LAY-1
  6
CONTINUOUS
 62
     7
100
AcDbCircle
 10
1003.37155
 20
446.102917
 30
0.0
 40
12.5
  0
MTEXT
  5
633
100
AcDbEntity
  8
LAY-1
  6
CONTINUOUS
 62
     7
100
AcDbMText
 10
1003.87155
 20
454.057868
 30
0.0
 40
15.909903
 41
47.729708
 71
     2
 72
     1
  1
{\W0.8400;６}
  7
EXCADSTD
  0
LINE
  5
634
100
AcDbEntity
  8
LAY-1
  6
CONTINUOUS
 62
     6
100
AcDbLine
 10
1053.0
 20
300.05
 30
0.0
 11
1045.218448
 21
319.310016
 31
0.0
  0
LINE
  5
635
100
AcDbEntity
  8
LAY-1
  6
CONTINUOUS
 62
     6
100
AcDbLine
 10
1045.0
 20
487.081219
 30
0.0
 11
1045.0
 21
320.433836
 31
0.0
  0
ARC
  5
636
100
AcDbEntity
  8
LAY-1
  6
CONTINUOUS
 62
     6
100
AcDbCircle
 10
1048.0
 20
320.433836
 30
0.0
 40
3.0
100
AcDbArc
 50
180.0
 51
202.0
  0
LINE
  5
637
100
AcDbEntity
  8
LAY-1
  6
CONTINUOUS
 62
     6
100
AcDbLine
 10
1053.0
 20
593.55
 30
0.0
 11
1053.0
 21
298.55
 31
0.0
  0
LINE
  5
638
100
AcDbEntity
  8
LAY-1
  6
CONTINUOUS
 62
     6
100
AcDbLine
 10
1053.0
 20
298.55
 30
0.0
 11
1184.0
 21
298.55
 31
0.0
  0
LINE
  5
639
100
AcDbEntity
  8
LAY-1
  6
CONTINUOUS
 62
     6
100
AcDbLine
 10
1053.0
 20
593.55
 30
0.0
 11
1184.0
 21
593.55
 31
0.0
  0
ARC
  5
63A
100
AcDbEntity
  8
LAY-1
  6
CONTINUOUS
 62
     6
100
AcDbCircle
 10
1037.0
 20
544.440209
 30
0.0
 40
3.0
100
AcDbArc
 50
158.0
 51
180.0
  0
ARC
  5
63B
100
AcDbEntity
  8
LAY-1
  6
CONTINUOUS
 62
     6
100
AcDbCircle
 10
1037.0
 20
535.36548
 30
0.0
 40
3.0
100
AcDbArc
 50
180.0
 51
193.012198
  0
ARC
  5
63C
100
AcDbEntity
  8
LAY-1
  6
CONTINUOUS
 62
     6
100
AcDbCircle
 10
1042.0
 20
487.081219
 30
0.0
 40
3.0
100
AcDbArc
 50
0.0
 51
13.012198
  0
LINE
  5
63D
100
AcDbEntity
  8
LAY-1
  6
CONTINUOUS
 62
     6
100
AcDbLine
 10
1053.0
 20
592.05
 30
0.0
 11
1034.218448
 21
545.564029
 31
0.0
  0
LINE
  5
63E
100
AcDbEntity
  8
LAY-1
  6
CONTINUOUS
 62
     6
100
AcDbLine
 10
1034.0
 20
544.440209
 30
0.0
 11
1034.0
 21
535.36548
 31
0.0
  0
LINE
  5
63F
100
AcDbEntity
  8
LAY-1
  6
CONTINUOUS
 62
     6
100
AcDbLine
 10
1034.077034
 20
534.690005
 30
0.0
 11
1044.922966
 21
487.756695
 31
0.0
  0
LINE
  5
640
100
AcDbEntity
  8
LAY-1
  6
CONTINUOUS
 62
     6
100
AcDbLine
 10
1184.0
 20
593.55
 30
0.0
 11
1184.0
 21
298.55
 31
0.0
  0
POLYLINE
  5
641
100
AcDbEntity
  8
LAY-1
  6
CONTINUOUS
 62
     7
100
AcDb2dPolyline
 66
     1
 10
0.0
 20
0.0
 30
0.0
 70
   128
  0
VERTEX
  5
642
100
AcDbEntity
  8
LAY-1
  6
CONTINUOUS
 62
     7
100
AcDbVertex
100
AcDb2dVertex
 10
1043.75
 20
232.5
 30
0.0
  0
VERTEX
  5
643
100
AcDbEntity
  8
LAY-1
  6
CONTINUOUS
 62
     7
100
AcDbVertex
100
AcDb2dVertex
 10
1193.25
 20
232.5
 30
0.0
  0
VERTEX
  5
644
100
AcDbEntity
  8
LAY-1
  6
CONTINUOUS
 62
     7
100
AcDbVertex
100
AcDb2dVertex
 10
1193.25
 20
203.5
 30
0.0
  0
VERTEX
  5
645
100
AcDbEntity
  8
LAY-1
  6
CONTINUOUS
 62
     7
100
AcDbVertex
100
AcDb2dVertex
 10
1043.75
 20
203.5
 30
0.0
  0
VERTEX
  5
646
100
AcDbEntity
  8
LAY-1
  6
CONTINUOUS
 62
     7
100
AcDbVertex
100
AcDb2dVertex
 10
1043.75
 20
232.5
 30
0.0
  0
SEQEND
  5
647
100
AcDbEntity
  8
LAY-1
  6
CONTINUOUS
 62
     7
  0
MTEXT
  5
648
100
AcDbEntity
  8
LAY-1
  6
CONTINUOUS
 62
     7
100
AcDbMText
 10
1118.5
 20
224.75
 30
0.0
 40
13.5
 41
290.25
 71
     2
 72
     1
  1
{\T0.83;\W0.8200;側面図　Ｓ=１／５}
  7
EXCADSTD
  0
LINE
  5
649
100
AcDbEntity
  8
LAY-1
  6
CONTINUOUS
 62
     6
100
AcDbLine
 10
1037.0
 20
352.3
 30
0.0
 11
1041.0
 21
352.55
 31
0.0
  0
POLYLINE
  5
64A
100
AcDbEntity
  8
LAY-1
  6
CONTINUOUS
 62
     6
100
AcDb2dPolyline
 66
     1
 10
0.0
 20
0.0
 30
0.0
 70
   128
  0
VERTEX
  5
64B
100
AcDbEntity
  8
LAY-1
  6
CONTINUOUS
 62
     6
100
AcDbVertex
100
AcDb2dVertex
 10
1041.0
 20
352.55
 30
0.0
  0
VERTEX
  5
64C
100
AcDbEntity
  8
LAY-1
  6
CONTINUOUS
 62
     6
100
AcDbVertex
100
AcDb2dVertex
 10
1042.5
 20
354.3
 30
0.0
  0
SEQEND
  5
64D
100
AcDbEntity
  8
LAY-1
  6
CONTINUOUS
 62
     6
  0
LINE
  5
64E
100
AcDbEntity
  8
LAY-1
  6
CONTINUOUS
 62
     6
100
AcDbLine
 10
1035.2
 20
350.8
 30
0.0
 11
1037.0
 21
350.8
 31
0.0
  0
LINE
  5
64F
100
AcDbEntity
  8
LAY-1
  6
CONTINUOUS
 62
     6
100
AcDbLine
 10
1037.0
 20
323.8
 30
0.0
 11
1041.0
 21
323.55
 31
0.0
  0
POLYLINE
  5
650
100
AcDbEntity
  8
LAY-1
  6
CONTINUOUS
 62
     6
100
AcDb2dPolyline
 66
     1
 10
0.0
 20
0.0
 30
0.0
 70
   128
  0
VERTEX
  5
651
100
AcDbEntity
  8
LAY-1
  6
CONTINUOUS
 62
     6
100
AcDbVertex
100
AcDb2dVertex
 10
1041.0
 20
323.55
 30
0.0
  0
VERTEX
  5
652
100
AcDbEntity
  8
LAY-1
  6
CONTINUOUS
 62
     6
100
AcDbVertex
100
AcDb2dVertex
 10
1042.5
 20
321.8
 30
0.0
  0
SEQEND
  5
653
100
AcDbEntity
  8
LAY-1
  6
CONTINUOUS
 62
     6
  0
LINE
  5
654
100
AcDbEntity
  8
LAY-1
  6
CONTINUOUS
 62
     6
100
AcDbLine
 10
1035.2
 20
325.3
 30
0.0
 11
1037.0
 21
325.3
 31
0.0
  0
LINE
  5
655
100
AcDbEntity
  8
LAY-1
  6
CONTINUOUS
 62
     6
100
AcDbLine
 10
1037.0
 20
352.3
 30
0.0
 11
1037.0
 21
323.8
 31
0.0
  0
LINE
  5
656
100
AcDbEntity
  8
LAY-1
  6
CONTINUOUS
 62
     6
100
AcDbLine
 10
1041.0
 20
323.55
 30
0.0
 11
1041.0
 21
352.55
 31
0.0
  0
LINE
  5
657
100
AcDbEntity
  8
LAY-1
  6
CONTINUOUS
 62
     6
100
AcDbLine
 10
1042.5
 20
321.8
 30
0.0
 11
1042.5
 21
354.3
 31
0.0
  0
ARC
  5
658
100
AcDbEntity
  8
LAY-1
  6
CONTINUOUS
 62
     6
100
AcDbCircle
 10
1093.833333
 20
338.05
 30
0.0
 40
70.833333
100
AcDbArc
 50
168.187718
 51
191.812282
  0
LINE
  5
659
100
AcDbEntity
  8
LAY-1
  6
CONTINUOUS
 62
     6
100
AcDbLine
 10
1024.5
 20
352.55
 30
0.0
 11
1028.7
 21
352.55
 31
0.0
  0
LINE
  5
65A
100
AcDbEntity
  8
LAY-1
  6
CONTINUOUS
 62
     6
100
AcDbLine
 10
1024.5
 20
323.55
 30
0.0
 11
1028.7
 21
323.55
 31
0.0
  0
LINE
  5
65B
100
AcDbEntity
  8
LAY-1
  6
CONTINUOUS
 62
     7
100
AcDbLine
 10
1024.5
 20
350.95
 30
0.0
 11
1024.5
 21
325.15
 31
0.0
  0
ARC
  5
65C
100
AcDbEntity
  8
LAY-1
  6
CONTINUOUS
 62
     6
100
AcDbCircle
 10
1029.7
 20
353.8
 30
0.0
 40
1.0
100
AcDbArc
 50
90.0
 51
180.0
  0
LINE
  5
65D
100
AcDbEntity
  8
LAY-1
  6
CONTINUOUS
 62
     6
100
AcDbLine
 10
1029.7
 20
354.8
 30
0.0
 11
1034.2
 21
354.8
 31
0.0
  0
ARC
  5
65E
100
AcDbEntity
  8
LAY-1
  6
CONTINUOUS
 62
     6
100
AcDbCircle
 10
1034.2
 20
353.8
 30
0.0
 40
1.0
100
AcDbArc
 50
0.0
 51
90.0
  0
LINE
  5
65F
100
AcDbEntity
  8
LAY-1
  6
CONTINUOUS
 62
     6
100
AcDbLine
 10
1028.7
 20
322.3
 30
0.0
 11
1028.7
 21
353.8
 31
0.0
  0
ARC
  5
660
100
AcDbEntity
  8
LAY-1
  6
CONTINUOUS
 62
     6
100
AcDbCircle
 10
1029.7
 20
322.3
 30
0.0
 40
1.0
100
AcDbArc
 50
180.0
 51
270.0
  0
LINE
  5
661
100
AcDbEntity
  8
LAY-1
  6
CONTINUOUS
 62
     6
100
AcDbLine
 10
1029.7
 20
321.3
 30
0.0
 11
1034.2
 21
321.3
 31
0.0
  0
LINE
  5
662
100
AcDbEntity
  8
LAY-1
  6
CONTINUOUS
 62
     6
100
AcDbLine
 10
1035.2
 20
322.3
 30
0.0
 11
1035.2
 21
353.8
 31
0.0
  0
ARC
  5
663
100
AcDbEntity
  8
LAY-1
  6
CONTINUOUS
 62
     6
100
AcDbCircle
 10
1034.2
 20
322.3
 30
0.0
 40
1.0
100
AcDbArc
 50
270.0
 51
0.0
  0
LINE
  5
664
100
AcDbEntity
  8
LAY-1
  6
CENTER
 62
     7
100
AcDbLine
 10
1081.8
 20
338.05
 30
0.0
 11
1005.8
 21
338.05
 31
0.0
  0
LINE
  5
665
100
AcDbEntity
  8
LAY-1
  6
CONTINUOUS
 62
     6
100
AcDbLine
 10
1042.5
 20
321.8
 30
0.0
 11
1045.0
 21
321.64375
 31
0.0
  0
LINE
  5
666
100
AcDbEntity
  8
LAY-1
  6
CONTINUOUS
 62
     6
100
AcDbLine
 10
1042.5
 20
354.3
 30
0.0
 11
1045.0
 21
354.45625
 31
0.0
  0
ARC
  5
667
100
AcDbEntity
  8
LAY-1
  6
HIDDEN
 62
     7
100
AcDbCircle
 10
1051.5
 20
532.65
 30
0.0
 40
233.009013
100
AcDbArc
 50
178.39534
 51
270.368845
  0
LINE
  5
668
100
AcDbEntity
  8
LAY-1
  6
HIDDEN
 62
     7
100
AcDbLine
 10
819.671811
 20
551.627373
 30
0.0
 11
837.516069
 21
557.092941
 31
0.0
  0
LINE
  5
669
100
AcDbEntity
  8
LAY-1
  6
HIDDEN
 62
     7
100
AcDbLine
 10
819.671811
 20
551.627373
 30
0.0
 11
818.582364
 21
539.174939
 31
0.0
  0
LINE
  5
66A
100
AcDbEntity
  8
LAY-1
  6
HIDDEN
 62
     7
100
AcDbLine
 10
873.161053
 20
563.510698
 30
0.0
 11
873.061479
 21
559.50413
 31
0.0
  0
LINE
  5
66B
100
AcDbEntity
  8
LAY-1
  6
HIDDEN
 62
     7
100
AcDbLine
 10
874.674086
 20
557.857315
 30
0.0
 11
874.574512
 21
553.850748
 31
0.0
  0
POLYLINE
  5
66C
100
AcDbEntity
  8
LAY-1
  6
HIDDEN
 62
     7
100
AcDb2dPolyline
 66
     1
 10
0.0
 20
0.0
 30
0.0
 70
   128
  0
VERTEX
  5
66D
100
AcDbEntity
  8
LAY-1
  6
HIDDEN
 62
     7
100
AcDbVertex
100
AcDb2dVertex
 10
873.061479
 20
559.50413
 30
0.0
  0
VERTEX
  5
66E
100
AcDbEntity
  8
LAY-1
  6
HIDDEN
 62
     7
100
AcDbVertex
100
AcDb2dVertex
 10
874.674086
 20
557.857315
 30
0.0
  0
SEQEND
  5
66F
100
AcDbEntity
  8
LAY-1
  6
HIDDEN
 62
     7
  0
LINE
  5
670
100
AcDbEntity
  8
LAY-1
  6
HIDDEN
 62
     7
100
AcDbLine
 10
871.823642
 20
565.434582
 30
0.0
 11
871.666761
 21
563.641431
 31
0.0
  0
LINE
  5
671
100
AcDbEntity
  8
LAY-1
  6
HIDDEN
 62
     7
100
AcDbLine
 10
844.769505
 20
565.994636
 30
0.0
 11
844.171833
 21
562.031646
 31
0.0
  0
LINE
  5
672
100
AcDbEntity
  8
LAY-1
  6
HIDDEN
 62
     7
100
AcDbLine
 10
842.297759
 20
560.689877
 30
0.0
 11
841.700087
 21
556.726887
 31
0.0
  0
POLYLINE
  5
673
100
AcDbEntity
  8
LAY-1
  6
HIDDEN
 62
     7
100
AcDb2dPolyline
 66
     1
 10
0.0
 20
0.0
 30
0.0
 70
   128
  0
VERTEX
  5
674
100
AcDbEntity
  8
LAY-1
  6
HIDDEN
 62
     7
100
AcDbVertex
100
AcDb2dVertex
 10
844.171833
 20
562.031646
 30
0.0
  0
VERTEX
  5
675
100
AcDbEntity
  8
LAY-1
  6
HIDDEN
 62
     7
100
AcDbVertex
100
AcDb2dVertex
 10
842.297759
 20
560.689877
 30
0.0
  0
SEQEND
  5
676
100
AcDbEntity
  8
LAY-1
  6
HIDDEN
 62
     7
  0
LINE
  5
677
100
AcDbEntity
  8
LAY-1
  6
HIDDEN
 62
     7
100
AcDbLine
 10
846.420677
 20
567.657053
 30
0.0
 11
846.263797
 21
565.863903
 31
0.0
  0
LINE
  5
678
100
AcDbEntity
  8
LAY-1
  6
HIDDEN
 62
     7
100
AcDbLine
 10
873.161053
 20
563.510698
 30
0.0
 11
844.769505
 21
565.994636
 31
0.0
  0
LINE
  5
679
100
AcDbEntity
  8
LAY-1
  6
HIDDEN
 62
     7
100
AcDbLine
 10
844.171833
 20
562.031646
 30
0.0
 11
873.061479
 21
559.50413
 31
0.0
  0
LINE
  5
67A
100
AcDbEntity
  8
LAY-1
  6
HIDDEN
 62
     7
100
AcDbLine
 10
842.297759
 20
560.689877
 30
0.0
 11
874.674086
 21
557.857315
 31
0.0
  0
ARC
  5
67B
100
AcDbEntity
  8
LAY-1
  6
HIDDEN
 62
     7
100
AcDbCircle
 10
854.011928
 20
508.135602
 30
0.0
 40
70.833333
100
AcDbArc
 50
73.187718
 51
96.812282
  0
LINE
  5
67C
100
AcDbEntity
  8
LAY-1
  6
HIDDEN
 62
     7
100
AcDbLine
 10
874.499549
 20
575.941342
 30
0.0
 11
874.133495
 21
571.757325
 31
0.0
  0
LINE
  5
67D
100
AcDbEntity
  8
LAY-1
  6
HIDDEN
 62
     7
100
AcDbLine
 10
845.609903
 20
578.468859
 30
0.0
 11
845.243849
 21
574.284841
 31
0.0
  0
LINE
  5
67E
100
AcDbEntity
  8
LAY-1
  6
HIDDEN
 62
     7
100
AcDbLine
 10
864.049982
 20
531.081377
 30
0.0
 11
848.110866
 21
532.475868
 31
0.0
  0
LINE
  5
67F
100
AcDbEntity
  8
LAY-1
  6
HIDDEN
 62
     7
100
AcDbLine
 10
872.905637
 20
576.080792
 30
0.0
 11
847.203814
 21
578.32941
 31
0.0
  0
ARC
  5
680
100
AcDbEntity
  8
LAY-1
  6
HIDDEN
 62
     7
100
AcDbCircle
 10
875.291582
 20
570.652185
 30
0.0
 40
1.0
100
AcDbArc
 50
355.0
 51
85.0
  0
LINE
  5
681
100
AcDbEntity
  8
LAY-1
  6
HIDDEN
 62
     7
100
AcDbLine
 10
876.287777
 20
570.56503
 30
0.0
 11
875.895576
 21
566.082153
 31
0.0
  0
ARC
  5
682
100
AcDbEntity
  8
LAY-1
  6
HIDDEN
 62
     7
100
AcDbCircle
 10
874.899382
 20
566.169309
 30
0.0
 40
1.0
100
AcDbArc
 50
265.0
 51
355.0
  0
LINE
  5
683
100
AcDbEntity
  8
LAY-1
  6
HIDDEN
 62
     7
100
AcDbLine
 10
843.998605
 20
574.393786
 30
0.0
 11
875.378738
 21
571.64838
 31
0.0
  0
ARC
  5
684
100
AcDbEntity
  8
LAY-1
  6
HIDDEN
 62
     7
100
AcDbCircle
 10
843.911449
 20
573.397591
 30
0.0
 40
1.0
100
AcDbArc
 50
85.0
 51
175.0
  0
LINE
  5
685
100
AcDbEntity
  8
LAY-1
  6
HIDDEN
 62
     7
100
AcDbLine
 10
842.915255
 20
573.484747
 30
0.0
 11
842.523054
 21
569.001871
 31
0.0
  0
LINE
  5
686
100
AcDbEntity
  8
LAY-1
  6
HIDDEN
 62
     7
100
AcDbLine
 10
843.432093
 20
567.91852
 30
0.0
 11
874.812226
 21
565.173114
 31
0.0
  0
ARC
  5
687
100
AcDbEntity
  8
LAY-1
  6
HIDDEN
 62
     7
100
AcDbCircle
 10
843.519249
 20
568.914715
 30
0.0
 40
1.0
100
AcDbArc
 50
175.0
 51
265.0
  0
POLYLINE
  5
688
100
AcDbEntity
  8
LAY-1
  6
HIDDEN
 62
     7
100
AcDb2dPolyline
 66
     1
 10
0.0
 20
0.0
 30
0.0
 70
   128
  0
VERTEX
  5
689
100
AcDbEntity
  8
LAY-1
  6
HIDDEN
 62
     7
100
AcDbVertex
100
AcDb2dVertex
 10
864.049982
 20
531.081377
 30
0.0
  0
VERTEX
  5
68A
100
AcDbEntity
  8
LAY-1
  6
HIDDEN
 62
     7
100
AcDbVertex
100
AcDb2dVertex
 10
867.007406
 20
533.332185
 30
0.0
  0
SEQEND
  5
68B
100
AcDbEntity
  8
LAY-1
  6
HIDDEN
 62
     7
  0
POLYLINE
  5
68C
100
AcDbEntity
  8
LAY-1
  6
HIDDEN
 62
     7
100
AcDb2dPolyline
 66
     1
 10
0.0
 20
0.0
 30
0.0
 70
   128
  0
VERTEX
  5
68D
100
AcDbEntity
  8
LAY-1
  6
HIDDEN
 62
     7
100
AcDbVertex
100
AcDb2dVertex
 10
848.110866
 20
532.475868
 30
0.0
  0
VERTEX
  5
68E
100
AcDbEntity
  8
LAY-1
  6
HIDDEN
 62
     7
100
AcDbVertex
100
AcDb2dVertex
 10
845.58922
 20
535.206033
 30
0.0
  0
SEQEND
  5
68F
100
AcDbEntity
  8
LAY-1
  6
HIDDEN
 62
     7
  0
ARC
  5
690
100
AcDbEntity
  8
LAY-1
  6
HIDDEN
 62
     7
100
AcDbCircle
 10
843.070736
 20
530.407273
 30
0.0
 40
1.0
100
AcDbArc
 50
198.203211
 51
265.0
  0
LINE
  5
691
100
AcDbEntity
  8
LAY-1
  6
HIDDEN
 62
     7
100
AcDbLine
 10
842.98358
 20
529.411078
 30
0.0
 11
843.57794
 21
529.359079
 31
0.0
  0
ARC
  5
692
100
AcDbEntity
  8
LAY-1
  6
HIDDEN
 62
     7
100
AcDbCircle
 10
843.665096
 20
530.355273
 30
0.0
 40
1.0
100
AcDbArc
 50
265.0
 51
338.300756
  0
LINE
  5
693
100
AcDbEntity
  8
LAY-1
  6
HIDDEN
 62
     7
100
AcDbLine
 10
846.697639
 20
534.005958
 30
0.0
 11
844.594234
 21
529.985539
 31
0.0
  0
LINE
  5
694
100
AcDbEntity
  8
LAY-1
  6
HIDDEN
 62
     7
100
AcDbLine
 10
839.743663
 20
537.323565
 30
0.0
 11
842.120781
 21
530.094885
 31
0.0
  0
LINE
  5
695
100
AcDbEntity
  8
LAY-1
  6
HIDDEN
 62
     7
100
AcDbLine
 10
867.146856
 20
534.926096
 30
0.0
 11
867.007406
 21
533.332185
 31
0.0
  0
LINE
  5
696
100
AcDbEntity
  8
LAY-1
  6
HIDDEN
 62
     7
100
AcDbLine
 10
845.728669
 20
536.799945
 30
0.0
 11
845.58922
 21
535.206033
 31
0.0
  0
LINE
  5
697
100
AcDbEntity
  8
LAY-1
  6
HIDDEN
 62
     7
100
AcDbLine
 10
1037.465981
 20
520.025104
 30
0.0
 11
818.582364
 21
539.174939
 31
0.0
  0
LINE
  5
698
100
AcDbEntity
  8
LAY-1
  6
HIDDEN
 62
     7
100
AcDbLine
 10
1004.870773
 20
522.876815
 30
0.0
 11
1003.389125
 21
505.941505
 31
0.0
  0
POLYLINE
  5
699
100
AcDbEntity
  8
LAY-1
  6
HIDDEN
 62
     7
100
AcDb2dPolyline
 66
     1
 10
0.0
 20
0.0
 30
0.0
 70
   128
  0
VERTEX
  5
69A
100
AcDbEntity
  8
LAY-1
  6
HIDDEN
 62
     7
100
AcDbVertex
100
AcDb2dVertex
 10
1003.389125
 20
505.941505
 30
0.0
  0
VERTEX
  5
69B
100
AcDbEntity
  8
LAY-1
  6
HIDDEN
 62
     7
100
AcDbVertex
100
AcDb2dVertex
 10
1006.116242
 20
502.691454
 30
0.0
  0
SEQEND
  5
69C
100
AcDbEntity
  8
LAY-1
  6
HIDDEN
 62
     7
  0
LINE
  5
69D
100
AcDbEntity
  8
LAY-1
  6
HIDDEN
 62
     7
100
AcDbLine
 10
1030.024915
 20
500.599716
 30
0.0
 11
1006.116242
 21
502.691454
 31
0.0
  0
LINE
  5
69E
100
AcDbEntity
  8
LAY-1
  6
HIDDEN
 62
     7
100
AcDbLine
 10
1034.756613
 20
520.262143
 30
0.0
 11
1033.274966
 21
503.326833
 31
0.0
  0
POLYLINE
  5
69F
100
AcDbEntity
  8
LAY-1
  6
HIDDEN
 62
     7
100
AcDb2dPolyline
 66
     1
 10
0.0
 20
0.0
 30
0.0
 70
   128
  0
VERTEX
  5
6A0
100
AcDbEntity
  8
LAY-1
  6
HIDDEN
 62
     7
100
AcDbVertex
100
AcDb2dVertex
 10
1033.274966
 20
503.326833
 30
0.0
  0
VERTEX
  5
6A1
100
AcDbEntity
  8
LAY-1
  6
HIDDEN
 62
     7
100
AcDbVertex
100
AcDb2dVertex
 10
1030.024915
 20
500.599716
 30
0.0
  0
SEQEND
  5
6A2
100
AcDbEntity
  8
LAY-1
  6
HIDDEN
 62
     7
  0
LINE
  5
6A3
100
AcDbEntity
  8
LAY-1
  6
HIDDEN
 62
     7
100
AcDbLine
 10
1024.023546
 20
517.492974
 30
0.0
 11
1011.705131
 21
508.367142
 31
0.0
  0
CIRCLE
  5
6A4
100
AcDbEntity
  8
LAY-1
  6
HIDDEN
 62
     7
100
AcDbCircle
 10
1021.669252
 20
508.357481
 30
0.0
 40
2.1
  0
LINE
  5
6A5
100
AcDbEntity
  8
LAY-1
  6
HIDDEN
 62
     7
100
AcDbLine
 10
1011.695392
 20
508.380289
 30
0.0
 11
1051.977611
 21
454.005727
 31
0.0
  0
LINE
  5
6A6
100
AcDbEntity
  8
LAY-1
  6
HIDDEN
 62
     7
100
AcDbLine
 10
1064.558959
 20
463.326347
 30
0.0
 11
1024.286479
 21
517.687762
 31
0.0
  0
LINE
  5
6A7
100
AcDbEntity
  8
LAY-1
  6
HIDDEN
 62
     7
100
AcDbLine
 10
1051.977611
 20
454.005727
 30
0.0
 11
1064.296026
 21
463.131558
 31
0.0
  0
LINE
  5
6A8
100
AcDbEntity
  8
LAY-1
  6
HIDDEN
 62
     7
100
AcDbLine
 10
1073.270005
 20
428.39772
 30
0.0
 11
1053.476329
 21
455.11602
 31
0.0
  0
LINE
  5
6A9
100
AcDbEntity
  8
LAY-1
  6
HIDDEN
 62
     7
100
AcDbLine
 10
1083.129995
 20
435.70228
 30
0.0
 11
1063.33632
 21
462.420581
 31
0.0
  0
ARC
  5
6AA
100
AcDbEntity
  8
LAY-1
  6
HIDDEN
 62
     7
100
AcDbCircle
 10
1078.2
 20
432.05
 30
0.0
 40
6.135471
100
AcDbArc
 50
216.532098
 51
36.532098
  0
CIRCLE
  5
6AB
100
AcDbEntity
  8
LAY-1
  6
HIDDEN
 62
     7
100
AcDbCircle
 10
1078.2
 20
432.05
 30
0.0
 40
2.0
  0
POLYLINE
  5
6AC
100
AcDbEntity
  8
LAY-1
  6
CONTINUOUS
 62
     7
100
AcDb2dPolyline
 66
     1
 10
0.0
 20
0.0
 30
0.0
 70
   128
  0
VERTEX
  5
6AD
100
AcDbEntity
  8
LAY-1
  6
CONTINUOUS
 62
     7
100
AcDbVertex
100
AcDb2dVertex
 10
375.45
 20
888.5
 30
0.0
  0
VERTEX
  5
6AE
100
AcDbEntity
  8
LAY-1
  6
CONTINUOUS
 62
     7
100
AcDbVertex
100
AcDb2dVertex
 10
524.95
 20
888.5
 30
0.0
  0
VERTEX
  5
6AF
100
AcDbEntity
  8
LAY-1
  6
CONTINUOUS
 62
     7
100
AcDbVertex
100
AcDb2dVertex
 10
524.95
 20
859.5
 30
0.0
  0
VERTEX
  5
6B0
100
AcDbEntity
  8
LAY-1
  6
CONTINUOUS
 62
     7
100
AcDbVertex
100
AcDb2dVertex
 10
375.45
 20
859.5
 30
0.0
  0
VERTEX
  5
6B1
100
AcDbEntity
  8
LAY-1
  6
CONTINUOUS
 62
     7
100
AcDbVertex
100
AcDb2dVertex
 10
375.45
 20
888.5
 30
0.0
  0
SEQEND
  5
6B2
100
AcDbEntity
  8
LAY-1
  6
CONTINUOUS
 62
     7
  0
MTEXT
  5
6B3
100
AcDbEntity
  8
LAY-1
  6
CONTINUOUS
 62
     7
100
AcDbMText
 10
450.2
 20
880.75
 30
0.0
 40
13.5
 41
290.25
 71
     2
 72
     1
  1
{\T0.83;\W0.8200;平面図　Ｓ=１／５}
  7
EXCADSTD
  0
LINE
  5
6B4
100
AcDbEntity
  8
LAY-1
  6
CONTINUOUS
 62
     6
100
AcDbLine
 10
255.2
 20
1038.0
 30
0.0
 11
255.2
 21
1169.0
 31
0.0
  0
LINE
  5
6B5
100
AcDbEntity
  8
LAY-1
  6
CONTINUOUS
 62
     6
100
AcDbLine
 10
255.2
 20
1169.0
 30
0.0
 11
645.2
 21
1169.0
 31
0.0
  0
LINE
  5
6B6
100
AcDbEntity
  8
LAY-1
  6
CONTINUOUS
 62
     6
100
AcDbLine
 10
645.2
 20
1038.0
 30
0.0
 11
645.2
 21
1169.0
 31
0.0
  0
LINE
  5
6B7
100
AcDbEntity
  8
LAY-1
  6
CONTINUOUS
 62
     6
100
AcDbLine
 10
258.046753
 20
1021.842992
 30
0.0
 11
257.2
 21
1038.0
 31
0.0
  0
ARC
  5
6B8
100
AcDbEntity
  8
LAY-1
  6
CONTINUOUS
 62
     6
100
AcDbCircle
 10
261.042642
 20
1022.0
 30
0.0
 40
3.0
100
AcDbArc
 50
183.0
 51
270.0
  0
LINE
  5
6B9
100
AcDbEntity
  8
LAY-1
  6
CONTINUOUS
 62
     6
100
AcDbLine
 10
273.7
 20
1020.0
 30
0.0
 11
273.7
 21
1038.0
 31
0.0
  0
LINE
  5
6BA
100
AcDbEntity
  8
LAY-1
  6
CONTINUOUS
 62
     6
100
AcDbLine
 10
261.042642
 20
1019.0
 30
0.0
 11
272.7
 21
1019.0
 31
0.0
  0
ARC
  5
6BB
100
AcDbEntity
  8
LAY-1
  6
CONTINUOUS
 62
     6
100
AcDbCircle
 10
272.7
 20
1020.0
 30
0.0
 40
1.0
100
AcDbArc
 50
270.0
 51
0.0
  0
LINE
  5
6BC
100
AcDbEntity
  8
LAY-1
  6
CONTINUOUS
 62
     6
100
AcDbLine
 10
273.9
 20
1020.0
 30
0.0
 11
273.9
 21
1038.0
 31
0.0
  0
LINE
  5
6BD
100
AcDbEntity
  8
LAY-1
  6
CONTINUOUS
 62
     6
100
AcDbLine
 10
255.2
 20
1038.0
 30
0.0
 11
645.2
 21
1038.0
 31
0.0
  0
LINE
  5
6BE
100
AcDbEntity
  8
LAY-1
  6
CONTINUOUS
 62
     6
100
AcDbLine
 10
273.9
 20
1020.0
 30
0.0
 11
626.5
 21
1020.0
 31
0.0
  0
LINE
  5
6BF
100
AcDbEntity
  8
LAY-1
  6
CONTINUOUS
 62
     6
100
AcDbLine
 10
642.353247
 20
1021.842992
 30
0.0
 11
643.2
 21
1038.0
 31
0.0
  0
ARC
  5
6C0
100
AcDbEntity
  8
LAY-1
  6
CONTINUOUS
 62
     6
100
AcDbCircle
 10
639.357358
 20
1022.0
 30
0.0
 40
3.0
100
AcDbArc
 50
270.0
 51
357.0
  0
LINE
  5
6C1
100
AcDbEntity
  8
LAY-1
  6
CONTINUOUS
 62
     6
100
AcDbLine
 10
626.7
 20
1020.0
 30
0.0
 11
626.7
 21
1038.0
 31
0.0
  0
LINE
  5
6C2
100
AcDbEntity
  8
LAY-1
  6
CONTINUOUS
 62
     6
100
AcDbLine
 10
639.357358
 20
1019.0
 30
0.0
 11
627.7
 21
1019.0
 31
0.0
  0
ARC
  5
6C3
100
AcDbEntity
  8
LAY-1
  6
CONTINUOUS
 62
     6
100
AcDbCircle
 10
627.7
 20
1020.0
 30
0.0
 40
1.0
100
AcDbArc
 50
180.0
 51
270.0
  0
LINE
  5
6C4
100
AcDbEntity
  8
LAY-1
  6
CONTINUOUS
 62
     6
100
AcDbLine
 10
626.5
 20
1020.0
 30
0.0
 11
626.5
 21
1038.0
 31
0.0
  0
ARC
  5
6C5
100
AcDbEntity
  8
LAY-1
  6
CONTINUOUS
 62
     7
100
AcDbCircle
 10
450.2
 20
1078.833333
 30
0.0
 40
70.833333
100
AcDbArc
 50
258.187718
 51
281.812282
  0
LINE
  5
6C6
100
AcDbEntity
  8
LAY-1
  6
CONTINUOUS
 62
     7
100
AcDbLine
 10
435.7
 20
1009.5
 30
0.0
 11
435.7
 21
1013.7
 31
0.0
  0
LINE
  5
6C7
100
AcDbEntity
  8
LAY-1
  6
CONTINUOUS
 62
     7
100
AcDbLine
 10
464.7
 20
1009.5
 30
0.0
 11
464.7
 21
1013.7
 31
0.0
  0
ARC
  5
6C8
100
AcDbEntity
  8
LAY-1
  6
CONTINUOUS
 62
     7
100
AcDbCircle
 10
434.45
 20
1014.7
 30
0.0
 40
1.0
100
AcDbArc
 50
180.0
 51
270.0
  0
LINE
  5
6C9
100
AcDbEntity
  8
LAY-1
  6
CONTINUOUS
 62
     7
100
AcDbLine
 10
433.45
 20
1014.7
 30
0.0
 11
433.45
 21
1019.2
 31
0.0
  0
LINE
  5
6CA
100
AcDbEntity
  8
LAY-1
  6
CONTINUOUS
 62
     7
100
AcDbLine
 10
465.95
 20
1013.7
 30
0.0
 11
434.45
 21
1013.7
 31
0.0
  0
ARC
  5
6CB
100
AcDbEntity
  8
LAY-1
  6
CONTINUOUS
 62
     7
100
AcDbCircle
 10
465.95
 20
1014.7
 30
0.0
 40
1.0
100
AcDbArc
 50
270.0
 51
0.0
  0
LINE
  5
6CC
100
AcDbEntity
  8
LAY-1
  6
CONTINUOUS
 62
     7
100
AcDbLine
 10
466.95
 20
1014.7
 30
0.0
 11
466.95
 21
1019.2
 31
0.0
  0
ARC
  5
6CD
100
AcDbEntity
  8
LAY-1
  6
CONTINUOUS
 62
     7
100
AcDbCircle
 10
434.45
 20
1019.2
 30
0.0
 40
1.0
100
AcDbArc
 50
126.869898
 51
180.0
  0
ARC
  5
6CE
100
AcDbEntity
  8
LAY-1
  6
CONTINUOUS
 62
     7
100
AcDbCircle
 10
465.95
 20
1019.2
 30
0.0
 40
1.0
100
AcDbArc
 50
0.0
 51
53.130102
  0
LINE
  5
6CF
100
AcDbEntity
  8
LAY-1
  6
CONTINUOUS
 62
     7
100
AcDbLine
 10
437.3
 20
1009.5
 30
0.0
 11
463.1
 21
1009.5
 31
0.0
  0
LINE
  5
6D0
100
AcDbEntity
  8
LAY-1
  6
CENTER
 62
     7
100
AcDbLine
 10
450.2
 20
1047.0
 30
0.0
 11
450.2
 21
990.8
 31
0.0
  0
LINE
  5
6D1
100
AcDbEntity
  8
LAY-1
  6
HIDDEN
 62
     7
100
AcDbLine
 10
273.7
 20
575.05
 30
0.0
 11
278.7
 21
575.05
 31
0.0
  0
LINE
  5
6D2
100
AcDbEntity
  8
LAY-1
  6
HIDDEN
 62
     7
100
AcDbLine
 10
626.7
 20
575.05
 30
0.0
 11
621.7
 21
575.05
 31
0.0
  0
DIMENSION
  5
6DE
100
AcDbEntity
  8
LAY-1
  6
CONTINUOUS
 62
     7
100
AcDbDimension
  2
*D27
 10
621.7
 20
681.0
 30
0.0
 11
450.2
 21
690.25
 31
0.0
 70
   160
  1
投 入 口　<>
  3
STANDARD
100
AcDbAlignedDimension
 13
278.7
 23
575.05
 33
0.0
 14
621.7
 24
575.05
 34
0.0
100
AcDbRotatedDimension
1001
ACAD
1000
DSTYLE
1002
{
1070
     6
1000
_EX_BCIR
1070
     7
1000
_EX_BCIR
1070
    41
1040
5.0
1070
    42
1040
33.45
1070
    44
1040
0.0
1070
    73
1070
     0
1070
    74
1070
     0
1070
    75
1070
     0
1070
    76
1070
     0
1070
    77
1070
     1
1070
    78
1070
     8
1070
   140
1040
13.5
1070
   147
1040
1.75
1070
   173
1070
     1
1070
   176
1070
     7
1070
   177
1070
     7
1070
   178
1070
     7
1070
   271
1070
     2
1070
   279
1070
     2
1070
   280
1070
     0
1070
   287
1070
     5
1070
   340
1005
568
1002
}
  0
DIMENSION
  5
6E8
100
AcDbEntity
  8
LAY-1
  6
CONTINUOUS
 62
     7
100
AcDbDimension
  2
*D28
 10
278.7
 20
681.0
 30
0.0
 11
274.45
 21
690.25
 31
0.0
 70
   160
  3
STANDARD
100
AcDbAlignedDimension
 13
255.2
 23
681.0
 33
0.0
 14
278.7
 24
681.0
 34
0.0
100
AcDbRotatedDimension
1001
ACAD
1000
DSTYLE
1002
{
1070
     6
1000
_EX_BCIR
1070
     7
1000
_EX_BCIR
1070
    41
1040
5.0
1070
    42
1040
0.0
1070
    44
1040
0.0
1070
    73
1070
     0
1070
    74
1070
     0
1070
    75
1070
     1
1070
    76
1070
     1
1070
    77
1070
     1
1070
    78
1070
     8
1070
   140
1040
13.5
1070
   147
1040
1.75
1070
   173
1070
     1
1070
   176
1070
     7
1070
   177
1070
     7
1070
   178
1070
     7
1070
   271
1070
     2
1070
   279
1070
     2
1070
   280
1070
     0
1070
   287
1070
     5
1070
   340
1005
568
1002
}
  0
DIMENSION
  5
6F2
100
AcDbEntity
  8
LAY-1
  6
CONTINUOUS
 62
     7
100
AcDbDimension
  2
*D29
 10
645.2
 20
681.0
 30
0.0
 11
626.45
 21
690.25
 31
0.0
 70
   160
  3
STANDARD
100
AcDbAlignedDimension
 13
621.7
 23
681.0
 33
0.0
 14
645.2
 24
681.0
 34
0.0
100
AcDbRotatedDimension
1001
ACAD
1000
DSTYLE
1002
{
1070
     6
1000
_EX_BCIR
1070
     7
1000
_EX_BCIR
1070
    41
1040
5.0
1070
    42
1040
0.0
1070
    44
1040
0.0
1070
    73
1070
     0
1070
    74
1070
     0
1070
    75
1070
     1
1070
    76
1070
     1
1070
    77
1070
     1
1070
    78
1070
     8
1070
   140
1040
13.5
1070
   147
1040
1.75
1070
   173
1070
     1
1070
   176
1070
     7
1070
   177
1070
     7
1070
   178
1070
     7
1070
   271
1070
     2
1070
   279
1070
     2
1070
   280
1070
     0
1070
   287
1070
     5
1070
   340
1005
568
1002
}
  0
LINE
  5
6F3
100
AcDbEntity
  8
LAY-1
  6
HIDDEN
 62
     7
100
AcDbLine
 10
276.2
 20
539.05
 30
0.0
 11
624.2
 21
539.05
 31
0.0
  0
LINE
  5
6F4
100
AcDbEntity
  8
LAY-1
  6
HIDDEN
 62
     7
100
AcDbLine
 10
276.2
 20
539.05
 30
0.0
 11
276.2
 21
535.05
 31
0.0
  0
LINE
  5
6F5
100
AcDbEntity
  8
LAY-1
  6
HIDDEN
 62
     7
100
AcDbLine
 10
624.2
 20
539.05
 30
0.0
 11
624.2
 21
535.05
 31
0.0
  0
LINE
  5
6F6
100
AcDbEntity
  8
LAY-1
  6
HIDDEN
 62
     7
100
AcDbLine
 10
621.7
 20
575.05
 30
0.0
 11
621.7
 21
553.5
 31
0.0
  0
LINE
  5
6F7
100
AcDbEntity
  8
LAY-1
  6
HIDDEN
 62
     7
100
AcDbLine
 10
278.7
 20
575.05
 30
0.0
 11
278.7
 21
553.5
 31
0.0
  0
LINE
  5
6F8
100
AcDbEntity
  8
LAY-1
  6
HIDDEN
 62
     7
100
AcDbLine
 10
273.9
 20
570.801952
 30
0.0
 11
626.5
 21
570.801952
 31
0.0
  0
DIMENSION
  5
702
100
AcDbEntity
  8
LAY-1
  6
CONTINUOUS
 62
     7
100
AcDbDimension
  2
*D30
 10
494.0
 20
570.801952
 30
0.0
 11
484.75
 21
556.425976
 31
0.0
 70
   160
 53
90.0
  3
STANDARD
100
AcDbAlignedDimension
 13
579.95
 23
539.05
 33
0.0
 14
582.45
 24
570.801952
 34
0.0
 50
90.0
100
AcDbRotatedDimension
1001
ACAD
1000
DSTYLE
1002
{
1070
     6
1000
_EX_BCIR
1070
     7
1000
_EX_BCIR
1070
    41
1040
5.0
1070
    42
1040
0.0
1070
    44
1040
0.0
1070
    73
1070
     0
1070
    74
1070
     0
1070
    75
1070
     1
1070
    76
1070
     1
1070
    77
1070
     1
1070
    78
1070
     0
1070
   140
1040
13.5
1070
   147
1040
1.75
1070
   173
1070
     1
1070
   176
1070
     7
1070
   177
1070
     7
1070
   178
1070
     7
1070
   271
1070
     0
1070
   279
1070
     2
1070
   280
1070
     0
1070
   287
1070
     5
1070
   340
1005
568
1002
}
  0
LINE
  5
703
100
AcDbEntity
  8
LAY-1
  6
CENTER
 62
     7
100
AcDbLine
 10
1733.5
 20
456.05
 30
0.0
 11
1733.5
 21
436.05
 31
0.0
  0
LINE
  5
704
100
AcDbEntity
  8
LAY-1
  6
CENTER
 62
     7
100
AcDbLine
 10
1723.5
 20
446.05
 30
0.0
 11
1743.5
 21
446.05
 31
0.0
  0
CIRCLE
  5
705
100
AcDbEntity
  8
LAY-1
  6
CONTINUOUS
 62
     7
100
AcDbCircle
 10
1733.5
 20
446.05
 30
0.0
 40
4.0
  0
LINE
  5
706
100
AcDbEntity
  8
LAY-1
  6
CENTER
 62
     7
100
AcDbLine
 10
1733.5
 20
336.05
 30
0.0
 11
1733.5
 21
316.05
 31
0.0
  0
LINE
  5
707
100
AcDbEntity
  8
LAY-1
  6
CENTER
 62
     7
100
AcDbLine
 10
1723.5
 20
326.05
 30
0.0
 11
1743.5
 21
326.05
 31
0.0
  0
CIRCLE
  5
708
100
AcDbEntity
  8
LAY-1
  6
CONTINUOUS
 62
     7
100
AcDbCircle
 10
1733.5
 20
326.05
 30
0.0
 40
4.0
  0
LINE
  5
709
100
AcDbEntity
  8
LAY-1
  6
CONTINUOUS
 62
     7
100
AcDbLine
 10
1548.5
 20
583.55
 30
0.0
 11
1918.5
 21
583.55
 31
0.0
  0
LINE
  5
70A
100
AcDbEntity
  8
LAY-1
  6
CONTINUOUS
 62
     6
100
AcDbLine
 10
1538.5
 20
593.55
 30
0.0
 11
1928.5
 21
593.55
 31
0.0
  0
DIMENSION
  5
715
100
AcDbEntity
  8
LAY-1
  6
CONTINUOUS
 62
     7
100
AcDbDimension
  2
*D31
 10
1473.55
 20
298.55
 30
0.0
 11
1464.3
 21
318.3
 31
0.0
 70
   160
 53
90.0
  3
STANDARD
100
AcDbAlignedDimension
 13
1723.5
 23
326.05
 33
0.0
 14
1473.55
 24
298.55
 34
0.0
 50
90.0
100
AcDbRotatedDimension
1001
ACAD
1000
DSTYLE
1002
{
1070
     6
1000
_EX_BCIR
1070
     7
1000
_EX_BCIR
1070
    41
1040
5.0
1070
    42
1040
27.0
1070
    44
1040
0.0
1070
    73
1070
     0
1070
    74
1070
     0
1070
    75
1070
     0
1070
    76
1070
     1
1070
    77
1070
     1
1070
    78
1070
     8
1070
   140
1040
13.5
1070
   147
1040
1.75
1070
   173
1070
     1
1070
   176
1070
     7
1070
   177
1070
     7
1070
   178
1070
     7
1070
   271
1070
     2
1070
   279
1070
     2
1070
   280
1070
     0
1070
   287
1070
     5
1070
   340
1005
568
1002
}
  0
MTEXT
  5
716
100
AcDbEntity
  8
LAY-1
  6
CONTINUOUS
 62
     7
100
AcDbMText
 10
876.9
 20
71.625
 30
0.0
 40
8.4375
 41
1603.125
 71
     2
 72
     1
  1
{　　東京支店　　〒101-0046　東京都千代田区神田多町 2-3-1　電話：03-5941-5521　FAX：03-3256-3033}
  7
EXCADTTF1
  0
LINE
  5
717
100
AcDbEntity
  8
LAY-1
  6
HIDDEN
 62
     7
100
AcDbLine
 10
1034.0
 20
539.902825
 30
0.0
 11
837.516069
 21
557.092941
 31
0.0
  0
MTEXT
  5
718
100
AcDbEntity
  8
LAY-1
  6
CONTINUOUS
 62
     7
100
AcDbMText
 10
1742.475
 20
1207.205
 30
0.0
 40
11.8125
 41
42.525
 71
     1
 72
     1
  1
{\W0.9000;１}
  7
EXCADTTF4
  0
MTEXT
  5
719
100
AcDbEntity
  8
LAY-1
  6
CONTINUOUS
 62
     7
100
AcDbMText
 10
1105.675
 20
1206.425
 30
0.0
 40
11.8125
 41
127.575
 71
     1
 72
     1
  1
{\W0.9000;ステー}
  7
EXCADTTF4
  0
MTEXT
  5
71A
100
AcDbEntity
  8
LAY-1
  6
CONTINUOUS
 62
     7
100
AcDbMText
 10
1797.075
 20
1206.425
 30
0.0
 40
11.8125
 41
297.675
 71
     1
 72
     1
  1
{\W0.9000;（スガツネ製）}
  7
EXCADTTF4
  0
MTEXT
  5
71B
100
AcDbEntity
  8
LAY-1
  6
CONTINUOUS
 62
     7
100
AcDbMText
 10
1317.075
 20
1206.425
 30
0.0
 40
11.8125
 41
276.4125
 71
     1
 72
     1
  1
{\W0.9000;ＳＵＳ-３０４}
  7
EXCADTTF4
  0
MTEXT
  5
71C
100
AcDbEntity
  8
LAY-1
  6
CONTINUOUS
 62
     7
100
AcDbMText
 10
1527.075
 20
1206.425
 30
0.0
 40
11.8125
 41
212.625
 71
     1
 72
     1
  1
{\W0.9000;バレル研磨}
  7
EXCADTTF4
  0
LINE
  5
71D
100
AcDbEntity
  8
LAY-1
  6
CONTINUOUS
 62
     6
100
AcDbLine
 10
1060.0
 20
1185.0
 30
0.0
 11
2050.0
 21
1185.0
 31
0.0
  0
LINE
  5
71E
100
AcDbEntity
  8
LAY-1
  6
CONTINUOUS
 62
     6
100
AcDbLine
 10
1090.0
 20
1395.0
 30
0.0
 11
1090.0
 21
1185.0
 31
0.0
  0
LINE
  5
71F
100
AcDbEntity
  8
LAY-1
  6
CONTINUOUS
 62
     6
100
AcDbLine
 10
1300.0
 20
1395.0
 30
0.0
 11
1300.0
 21
1185.0
 31
0.0
  0
LINE
  5
720
100
AcDbEntity
  8
LAY-1
  6
CONTINUOUS
 62
     6
100
AcDbLine
 10
1720.0
 20
1395.0
 30
0.0
 11
1720.0
 21
1185.0
 31
0.0
  0
LINE
  5
721
100
AcDbEntity
  8
LAY-1
  6
CONTINUOUS
 62
     6
100
AcDbLine
 10
1780.0
 20
1395.0
 30
0.0
 11
1780.0
 21
1185.0
 31
0.0
  0
MTEXT
  5
722
100
AcDbEntity
  8
LAY-1
  6
CONTINUOUS
 62
     7
100
AcDbMText
 10
1548.475
 20
1165.575
 30
0.0
 40
11.8125
 41
297.675
 71
     1
 72
     1
  1
{\W0.9000;＜オプション＞}
  7
EXCADTTF4
  0
LINE
  5
723
100
AcDbEntity
  8
LAY-1
  6
CONTINUOUS
 62
     6
100
AcDbLine
 10
1510.0
 20
1395.0
 30
0.0
 11
1510.0
 21
1185.0
 31
0.0
  0
MTEXT
  5
724
100
AcDbEntity
  8
LAY-1
  6
CONTINUOUS
 62
     7
100
AcDbMText
 10
1566.225
 20
1133.775
 30
0.0
 40
11.8125
 41
1233.225135
 71
     1
 72
     1
  1
{\W0.9000; 錠（静音対応無）：シリンダー錠，ラッチ錠（南京錠受）\P 取付スタンド：ＳＵＳ-３０４(ＨＬ) □-６０×３０×１６６０}
  7
EXCADTTF4
  0
MTEXT
  5
725
100
AcDbEntity
  8
LAY-1
  6
CONTINUOUS
 62
     7
100
AcDbMText
 10
1525.775
 20
1296.425
 30
0.0
 40
11.8125
 41
425.25
 71
     1
 72
     1
  1
{\W0.9000;アクリルウレタン塗装}
  7
EXCADTTF4
  0
MTEXT
  5
727
100
AcDbEntity
  8
LAY-1
  6
CONTINUOUS
 62
     7
100
AcDbMText
 10
1340.75
 20
101.75
 30
0.0
 40
10.125
 41
81.0
 71
     1
 72
     3
  1
{\W1.3333;金子}
  7
EXCADTTF5
 11
0.0
 21
-1.0
 31
0.0
  0
CIRCLE
  5
728
100
AcDbEntity
  8
LAY-1
  6
CONTINUOUS
 62
     1
100
AcDbCircle
 10
1350.0
 20
87.5
 30
0.0
 40
17.5
  0
LINE
  5
729
100
AcDbEntity
  8
LAY-1
  6
CONTINUOUS
 62
     6
100
AcDbLine
 10
273.9
 20
545.05
 30
0.0
 11
626.5
 21
545.05
 31
0.0
  0
LINE
  5
72A
100
AcDbEntity
  8
LAY-1
  6
CONTINUOUS
 62
     7
100
AcDbLine
 10
273.9
 20
585.35
 30
0.0
 11
273.9
 21
526.813247
 31
0.0
  0
LINE
  5
72B
100
AcDbEntity
  8
LAY-1
  6
CONTINUOUS
 62
     7
100
AcDbLine
 10
626.5
 20
585.35
 30
0.0
 11
626.5
 21
526.813247
 31
0.0
  0
MTEXT
  5
72C
100
AcDbEntity
  8
LAY-1
  6
CONTINUOUS
 62
     7
100
AcDbMText
 10
1085.475
 20
1165.525
 30
0.0
 40
11.8125
 41
1105.65
 71
     1
 72
     1
  1
{\W0.9000;付属品：ナイロンアンカー（φ８×４０）・・・・・２本\P      ：丸木ネジ（φ５．１×５０）・・・・・・・２本\P      ：平ワッシャー（φ５）・・・・・・・・・・２枚\P　　　：取扱取付説明書・・・・・・・・・・・・・１葉}
  7
EXCADTTF4
  0
MTEXT
  5
72D
100
AcDbEntity
  8
LAY-1
  6
CONTINUOUS
 62
     7
100
AcDbMText
 10
1135.475
 20
917.525
 30
0.0
 40
11.8125
 41
850.5
 71
     1
 72
     1
  1
{\W0.9000;梱包仕様：１個入れのダンボール箱にて出荷}
  7
EXCADTTF4
  0
POLYLINE
  5
72E
100
AcDbEntity
  8
LAY-1
  6
CONTINUOUS
 62
     4
100
AcDb2dPolyline
 66
     1
 10
0.0
 20
0.0
 30
0.0
 70
   128
  0
VERTEX
  5
72F
100
AcDbEntity
  8
LAY-1
  6
CONTINUOUS
 62
     4
100
AcDbVertex
100
AcDb2dVertex
 10
50.0
 20
50.0
 30
0.0
  0
VERTEX
  5
730
100
AcDbEntity
  8
LAY-1
  6
CONTINUOUS
 62
     4
100
AcDbVertex
100
AcDb2dVertex
 10
50.0
 20
1435.0
 30
0.0
  0
VERTEX
  5
731
100
AcDbEntity
  8
LAY-1
  6
CONTINUOUS
 62
     4
100
AcDbVertex
100
AcDb2dVertex
 10
2050.0
 20
1435.0
 30
0.0
  0
VERTEX
  5
732
100
AcDbEntity
  8
LAY-1
  6
CONTINUOUS
 62
     4
100
AcDbVertex
100
AcDb2dVertex
 10
2050.0
 20
50.0
 30
0.0
  0
VERTEX
  5
733
100
AcDbEntity
  8
LAY-1
  6
CONTINUOUS
 62
     4
100
AcDbVertex
100
AcDb2dVertex
 10
50.0
 20
50.0
 30
0.0
  0
SEQEND
  5
734
100
AcDbEntity
  8
LAY-1
  6
CONTINUOUS
 62
     4
  0
LINE
  5
735
100
AcDbEntity
  8
LAY-1
  6
CONTINUOUS
 62
     1
100
AcDbLine
 10
1060.0
 20
1435.0
 30
0.0
 11
1060.0
 21
885.0
 31
0.0
  0
LINE
  5
736
100
AcDbEntity
  8
LAY-1
  6
CONTINUOUS
 62
     1
100
AcDbLine
 10
1060.0
 20
885.0
 30
0.0
 11
2050.0
 21
885.0
 31
0.0
  0
MTEXT
  5
737
100
AcDbEntity
  8
LAY-1
  6
CONTINUOUS
 62
     7
100
AcDbMText
 10
1688.524994
 20
943.675
 30
0.0
 40
11.8125
 41
807.975
 71
     1
 72
     1
  1
{\W0.9000;カラーバリエーション４色\Pブラウン、グリーン、ブラック、ホワイト}
  7
EXCADTTF4
  0
MTEXT
  5
738
100
AcDbEntity
  8
LAY-1
  6
CONTINUOUS
 62
     7
100
AcDbMText
 10
1937.5
 20
130.625
 30
0.0
 40
8.4375
 41
411.075
 71
     2
 72
     1
  1
{\T1.12;戸建郵便受箱 villetta}
  7
EXCADTTF1
  0
MTEXT
  5
739
100
AcDbEntity
  8
LAY-1
  6
CONTINUOUS
 62
     7
100
AcDbMText
 10
1796.275
 20
1296.425
 30
0.0
 40
11.8125
 41
361.4625
 71
     1
 72
     1
  1
{\W0.9000;ｔ０.７（Ｎｏ４）}
  7
EXCADTTF4
  0
MTEXT
  5
73A
100
AcDbEntity
  8
LAY-1
  6
CONTINUOUS
 62
     7
100
AcDbMText
 10
1796.275
 20
1356.425
 30
0.0
 40
11.8125
 41
510.3
 71
     1
 72
     1
  1
{\W0.9000;ｔ０.７，０.６（Ｎｏ４）}
  7
EXCADTTF4
  0
LINE
  5
73B
100
AcDbEntity
  8
LAY-1
  6
CONTINUOUS
 62
     6
100
AcDbLine
 10
273.9
 20
585.35
 30
0.0
 11
626.5
 21
585.35
 31
0.0
  0
LINE
  5
73C
100
AcDbEntity
  8
LAY-1
  6
CONTINUOUS
 62
     6
100
AcDbLine
 10
624.3
 20
526.813247
 30
0.0
 11
624.3
 21
300.05
 31
0.0
  0
LINE
  5
73D
100
AcDbEntity
  8
LAY-1
  6
CONTINUOUS
 62
     6
100
AcDbLine
 10
276.1
 20
526.813247
 30
0.0
 11
276.1
 21
300.05
 31
0.0
  0
LINE
  5
73E
100
AcDbEntity
  8
LAY-1
  6
CONTINUOUS
 62
     7
100
AcDbLine
 10
255.2
 20
298.55
 30
0.0
 11
645.2
 21
298.55
 31
0.0
  0
LINE
  5
73F
100
AcDbEntity
  8
LAY-1
  6
CONTINUOUS
 62
     6
100
AcDbLine
 10
276.1
 20
300.05
 30
0.0
 11
624.3
 21
300.05
 31
0.0
  0
LINE
  5
740
100
AcDbEntity
  8
LAY-1
  6
CONTINUOUS
 62
     6
100
AcDbLine
 10
626.5
 20
526.813247
 30
0.0
 11
273.9
 21
526.813247
 31
0.0
  0
LINE
  5
741
100
AcDbEntity
  8
LAY-1
  6
CONTINUOUS
 62
     7
100
AcDbLine
 10
276.1
 20
482.05
 30
0.0
 11
275.4
 21
482.05
 31
0.0
  0
LINE
  5
742
100
AcDbEntity
  8
LAY-1
  6
CONTINUOUS
 62
     7
100
AcDbLine
 10
275.4
 20
482.05
 30
0.0
 11
275.4
 21
526.813247
 31
0.0
  0
LINE
  5
743
100
AcDbEntity
  8
LAY-1
  6
CONTINUOUS
 62
     7
100
AcDbLine
 10
624.3
 20
482.05
 30
0.0
 11
625.0
 21
482.05
 31
0.0
  0
LINE
  5
744
100
AcDbEntity
  8
LAY-1
  6
CONTINUOUS
 62
     7
100
AcDbLine
 10
625.0
 20
482.05
 30
0.0
 11
625.0
 21
526.813247
 31
0.0
  0
MTEXT
  5
745
100
AcDbEntity
  8
LAY-1
  6
CONTINUOUS
 62
     7
100
AcDbMText
 10
1612.5
 20
68.125
 30
0.0
 40
8.4375
 41
371.25
 71
     2
 72
     1
  1
{２０１１年１２月０１日}
  7
EXCADTTF1
  0
MTEXT
  5
746
100
AcDbEntity
  8
LAY-1
  6
CONTINUOUS
 62
     7
100
AcDbMText
 10
873.75
 20
92.125
 30
0.0
 40
8.4375
 41
1620.0
 71
     2
 72
     1
  1
{本社･第一事業部　〒373-0846　群馬県太田市中根町 668-5　　　電話：0276-32-3600　FAX：0276-32-3716}
  7
EXCADTTF1
  0
ENDSEC
  0
SECTION
  2
OBJECTS
  0
DICTIONARY
  5
19
100
AcDbDictionary
  3
ACAD_GROUP
350
1A
  3
ACAD_MLINESTYLE
350
1B
  0
DICTIONARY
  5
1A
102
{ACAD_REACTORS
330
19
102
}
100
AcDbDictionary
  0
DICTIONARY
  5
1B
102
{ACAD_REACTORS
330
19
102
}
100
AcDbDictionary
  3
STANDARD
350
1C
  0
MLINESTYLE
  5
1C
102
{ACAD_REACTORS
330
1B
102
}
100
AcDbMlineStyle
  2
Standard
 70
     0
  3

 62
     0
 51
90.0
 52
90.0
 71
     2
 49
0.5
 62
   256
  6
ByLayer
 49
-0.5
 62
   256
  6
ByLayer
  0
ENDSEC
  0
EOF
